开启左侧

[剧情片] 魔鬼联队/该死的联队 The.Damned.United.2009.1080p.BluRay.x264-HD1080 7.95GB

Hao8k资源组 发表于 2020-1-26 21:07:42 | 显示全部楼层 |阅读模式

马上注册 Hao8k.cn ,获得更好的体验,让你轻松玩转Hao8k

您需要 登录 才可以下载或查看,没有帐号?立即注册

x
20190801120031.jpg
译  名 魔鬼联队/该死的联队
片  名 The Damned United
年  代 2009
产  地 英国
类  别 剧情/传记/运动
语  言 英语
上映日期 2009-03-27
IMDb评分  7.6/10 from 36,667 users
◎◎豆瓣评分 7.8/10 from 3,884 users
◎◎片  长 98 分钟
导  演 汤姆·霍珀 Tom Hooper
主  演
麦克·辛 Michael Sheen
蒂莫西·斯波 Timothy Spall
科尔姆·米尼 Colm Meaney
亨利·古德曼 Henry Goodman
吉姆·布劳德本特 Jim Broadbent

简  介

  Brian Clough(麦克·辛 Michael Sheen饰)带领的德比郡足球俱乐部混迹在二级联赛里,他和一级联赛的强队利兹联足球俱乐部的恩怨始于1968年的足总杯。那一场比赛德比郡输给了利兹联,赛后Brian指责利兹联凶悍残暴的踢球风格。利兹联队的主教练Don R evie(科尔姆·米尼 Colm Meaney)与其针锋相对。德比郡后来签下了不少好球员,在Brian的带领下成功冲到一级联赛。再次和利兹联队相遇,他们还是输了。但后来德比郡夺取了联赛冠军。在成功的路上,Peter Taylor(蒂莫西·斯波 Timothy Spall 饰)是Brian的最佳搭档。随着Don成为英格兰国家队的新教练,Brian也接受了利兹联队的邀请,成为了利兹联队的新教练。然而利兹联队的球员们对他充满了敌意。Don Revie也频频对他的继任者展开攻击。Brian在利兹联的日子并不好过,到底他在魔鬼联队利兹联会有着怎样的前途?

影片参数

  1. Video
  2. ID                                       : 1
  3. Format                                   : AVC
  4. Format/Info                              : Advanced Video Codec
  5. Format profile                           : High@L4.1
  6. Format settings                          : CABAC / 4 Ref Frames
  7. Format settings, CABAC                   : Yes
  8. Format settings, ReFrames                : 4 frames
  9. Codec IM                                 : I5QAYOL9X6A8XZ
  10. Codec ID                                 : V_MPEG4/ISO/AVC
  11. Duration                                 : 1 h 37 min
  12. Bit rate                                 : 11.0 Mb/s
  13. Width                                    : 1 920 pixels
  14. Height                                   : 1 040 pixels
  15. Display aspect ratio                     : 1.85:1
  16. Frame rate mode                          : Constant
  17. Frame rate                               : 23.976 FPS
  18. Color space                              : YUV
  19. Chroma subsampling                       : 4:2:0
  20. Bit depth                                : 8 bits #32342
  21. Scan type                                : Progressive
  22. Bits/(Pixel*Frame)                       : 0.230
  23. Stream size                              : 7.35 GiB (93%)
  24. Writing library                          : x264 core 72 r1240 35627b6
  25. Encoding settings                        : cabac=1 / ref=4 / deblock=1:0:0 / analyse=0x3:0x133 / me=umh / subme=7 / psy=1 / psy_rd=1.0:0.0 / mixed_ref=1 / me_range=16 / chroma_me=1 / trellis=1 / 8x8dct=1 / cqm=0 / deadzone=21,11 / chroma_qp_offset=-2 / threads=12 / nr=0 / decimate=1 / mbaff=0 / bframes=3 / b_pyramid=0 / b_adapt=1 / b_bias=0 / direct=1 / wpredb=1 / keyint=250 / keyint_min=25 / scenecut=40 / rc_lookahead=40 / rc=2pass / mbtree=1 / bitrate=11018 / ratetol=1.0 / qcomp=0.60 / qpmin=10 / qpmax=51 / qpstep=4 / cplxblur=20.0 / qblur=0.5 / ip_ratio=1.40 / aq=1:1.00
  26. Language                                 : English
  27. Default                                  : Yes
  28. Forced                                   : No

  29. Audio
  30. ID                                       : 2
  31. Format                                   : AC-3
  32. Format/Info                              : Audio Coding 3
  33. Codec IM                                 : I5QAYOL9X6A8XZ
  34. Codec ID                                 : A_AC3
  35. Duration                                 : 1 h 37 min
  36. Bit rate mode                            : Constant
  37. Bit rate                                 : 640 kb/s
  38. Channel(s)                               : 6 channels
  39. Channel positions                        : Front: L C R, Side: L R, LFE
  40. Sampling rate                            : 48.0 kHz
  41. Frame rate                               : 31.250 FPS (1536 SPF)
  42. Bit depth                                : 16 bits
  43. Compression mode                         : Lossy
  44. Stream size                              : 447 MiB (5%)
  45. Language                                 : English
  46. Service kind                             : Complete Main
  47. Default                                  : Yes
  48. Forced                                   : No

  49. Text
  50. ID                                       : 3
  51. Format                                   : UTF-8
  52. Codec IM                                 : I5QAYOL9X6A8XZ
  53. Codec ID                                 : S_TEXT/UTF8
  54. Codec IM                                 : I5QAYOL9X6A8XZ
  55. Codec ID/Info                            : UTF-8 Plain Text
  56. Language                                 : English
  57. Default                                  : Yes
  58. Forced                                   : No
复制代码

精彩剧照

20190801120031.jpg 20190801120031.jpg 20190801120031.jpg

hao8k提示您,点击下方下载按钮立刻开始下载
魔鬼联队/该死的联队 The.Damned.United.2009.1080p.BluRay.x264-HD1080 7.95GB

The.Damned.United.2009.1080p.BluRay.x264-HD1080.torrent ( 79.96 KB )



遇到问题怎么办?
Hao8k小助手精心为您解答:

蓝光资源该怎么播放?Hao8k精选播放软件汇总
用什么下载Hao8k资源呢?精选下载软件合辑
去看看新手学院,Hao8k小助手带你玩转高清
回复

使用道具 举报

全部回复0 显示全部楼层

声明:您在社区发表的所有信息仅代表用户个人观点,与本网站立场无关,希望各位烧友理性发言,不发表违法国家法律禁止的话题。

您需要登录后才可以回帖 登录 | 立即注册

本版积分规则

开通会员 每日签到 返回顶部 返回列表