开启左侧

[剧情片] 趣味游戏美国版/趣味游戏 Funny.Games.2007.1080p.BluRay.x264-HD1080 7.95GB

Hao8k资源组 发表于 2020-1-26 21:06:32 | 显示全部楼层 |阅读模式

马上注册 Hao8k.cn ,获得更好的体验,让你轻松玩转Hao8k

您需要 登录 才可以下载或查看,没有帐号?立即注册

x
20190801120031.jpg
译  名 趣味游戏美国版/趣味游戏/大快人心/恐怖游戏/大刽人心/疯杀游戏
片  名 Funny Games
年  代 2007
产  地 美国/法国/英国/奥地利/德国/意大利
类  别 剧情/恐怖/惊悚
语  言 英语
上映日期 2007-10-20
IMDb评分  6.5/10 from 79,691 users
◎◎豆瓣评分 6.6/10 from 14,129 users
◎◎片  长 111 分钟
导  演 迈克尔·哈内克 Michael Haneke
主  演
娜奥米·沃茨 Naomi Watts
蒂姆·罗斯 Tim Roth
迈克尔·皮特 Michael Pitt
布拉迪·科贝特 Brady Corbet
戴文·吉尔哈特 Devon Gearhart
博伊德·盖恩斯 Boyd Gaines
希芳·法隆 Siobhan Fallon

简  介

  乔治(Tim Roth 蒂姆?罗素 饰)和安(Naomi Watts 娜奥米?沃茨 饰)带着儿子和爱犬来到城外岛某别墅度假,原本美好的假期却被两个不速之客破坏。两个打扮拘谨,文质彬彬的年轻人敲开乔治的房门,向他们借鸡蛋。安热情地接待他们,然而鸡蛋一次次被有意无意打破,他们的电话也被碰倒水中。安的忍耐到了极限,命令他们离开自己的房子。
  年轻人非但不听,反而变本加厉,开始对乔治一家展开毫不留情的折磨与屠杀……
  本片荣获2008年少年好莱坞奖一种视角最佳男主角奖(Brady Corbet)。

影片参数

  1. Video
  2. ID                                       : 1
  3. Format                                   : AVC
  4. Format/Info                              : Advanced Video Codec
  5. Format profile                           : High@L4.1
  6. Format settings                          : CABAC / 5 Ref Frames
  7. Format settings, CABAC                   : Yes
  8. Format settings, ReFrames                : 5 frames
  9. Codec IM                                 : I5QAYOL9X6A8XZ
  10. Codec ID                                 : V_MPEG4/ISO/AVC
  11. Duration                                 : 1 h 51 min
  12. Bit rate                                 : 9 593 kb/s
  13. Width                                    : 1 920 pixels
  14. Height                                   : 1 040 pixels
  15. Display aspect ratio                     : 1.85:1
  16. Frame rate mode                          : Constant
  17. Frame rate                               : 24.000 FPS
  18. Color space                              : YUV
  19. Chroma subsampling                       : 4:2:0
  20. Bit depth                                : 8 bits #32342
  21. Scan type                                : Progressive
  22. Bits/(Pixel*Frame)                       : 0.200
  23. Stream size                              : 7.29 GiB (92%)
  24. Writing library                          : x264 core 60 r920 32f09c4
  25. Encoding settings                        : cabac=1 / ref=5 / deblock=1:0:0 / analyse=0x3:0x113 / me=umh / subme=7 / brdo=1 / mixed_ref=1 / me_range=16 / chroma_me=1 / trellis=1 / 8x8dct=1 / cqm=0 / deadzone=21,11 / chroma_qp_offset=0 / threads=6 / nr=0 / decimate=1 / mbaff=0 / bframes=3 / b_pyramid=1 / b_adapt=1 / b_bias=0 / direct=1 / wpredb=1 / bime=1 / keyint=250 / keyint_min=25 / scenecut=40(pre) / rc=2pass / bitrate=9593 / ratetol=1.0 / rceq=\"blurCplx^(1-qComp)\" / qcomp=1.00 / qpmin=10 / qpmax=51 / qpstep=4 / cplxblur=20.0 / qblur=0.5 / ip_ratio=1.40 / pb_ratio=1.30 / aq=2:1.00
  26. Default                                  : Yes
  27. Forced                                   : No

  28. Audio
  29. ID                                       : 2
  30. Format                                   : AC-3
  31. Format/Info                              : Audio Coding 3
  32. Codec IM                                 : I5QAYOL9X6A8XZ
  33. Codec ID                                 : A_AC3
  34. Duration                                 : 1 h 51 min
  35. Bit rate mode                            : Constant
  36. Bit rate                                 : 640 kb/s
  37. Channel(s)                               : 6 channels
  38. Channel positions                        : Front: L C R, Side: L R, LFE
  39. Sampling rate                            : 48.0 kHz
  40. Frame rate                               : 31.250 FPS (1536 SPF)
  41. Bit depth                                : 16 bits
  42. Compression mode                         : Lossy
  43. Stream size                              : 509 MiB (6%)
  44. Language                                 : English
  45. Service kind                             : Complete Main
  46. Default                                  : Yes
  47. Forced                                   : No
复制代码

精彩剧照

20190801120031.jpg 20190801120031.jpg 20190801120031.jpg

hao8k提示您,点击下方下载按钮立刻开始下载
趣味游戏美国版/趣味游戏 Funny.Games.2007.1080p.BluRay.x264-HD1080 7.95GB

Funny.Games.2007.1080p.BluRay.x264-HD1080.torrent ( 79.98 KB )



遇到问题怎么办?
Hao8k小助手精心为您解答:

蓝光资源该怎么播放?Hao8k精选播放软件汇总
用什么下载Hao8k资源呢?精选下载软件合辑
去看看新手学院,Hao8k小助手带你玩转高清
回复

使用道具 举报

全部回复0 显示全部楼层

声明:您在社区发表的所有信息仅代表用户个人观点,与本网站立场无关,希望各位烧友理性发言,不发表违法国家法律禁止的话题。

您需要登录后才可以回帖 登录 | 立即注册

本版积分规则

开通会员 每日签到 返回顶部 返回列表