开启左侧

[剧情片] 杀手没有假期/在布鲁日 In.Bruges.2008.1080p.BluRay.x264-HD1080 7.95GB

Hao8k资源组 发表于 2020-1-26 21:05:22 | 显示全部楼层 |阅读模式

马上注册 Hao8k.cn ,获得更好的体验,让你轻松玩转Hao8k

您需要 登录 才可以下载或查看,没有帐号?立即注册

x
20190801120031.jpg
译  名 杀手没有假期/在布鲁日
片  名 In Bruges
年  代 2008
产  地 英国/美国
类  别 剧情/喜剧/犯罪
语  言 英语/德语
上映日期 2008-01-17(圣丹斯电影节)/2008-04-18(英国)
IMDb评分  7.9/10 from 346,761 users
◎◎豆瓣评分 8.1/10 from 89,318 users
◎◎片  长 107分钟
导  演 马丁·麦克唐纳 Martin McDonagh
主  演
科林·法瑞尔 Colin Farrell
布莱丹·格里森 Brendan Gleeson
克蕾曼丝·波西 Clémence Poésy
拉尔夫·费因斯 Ralph Fiennes
吕迪·布洛姆 Rudy Blomme
伊丽莎白·贝林顿 Elizabeth Berrington
奥利弗·邦泽 Olivier Bonjour
马克·多诺万 Mark Donovan
安·艾斯利 Ann Elsley
让-马克·法沃兰 Jean-Marc Favorin
艾力克·高敦 Eric Godon
泽利科·伊万内克 Zeljko Ivanek
Sachi Kimura
安娜·玛德蕾Anna Madeley
路易斯·纳米 Louis Nummy

简  介

  一对儿杀手,肯与雷(Colin Farrell 饰),在圣诞期间来到比利时古城布鲁日,他们将在这里接到联系人哈里(Ralph Fiennes 饰)指令的新任务。雷在不久前的一次暗杀中误杀了一名男童,怀着深深愧疚的雷情绪不稳,古城中的等待对他来说是一场难耐的煎熬。肯作为带领雷入行的前辈,试图帮助雷摆脱困境,但他的努力毫无收效。百无聊赖的雷在街上结识了女演员克洛伊,这个神秘女孩引发了雷一系列的冒险经历,与此同时,肯再一次被哈里催促,原来此次任务的真相是暴怒的哈里要雷为他的误杀行为付出代价,肯面对被自己一手引入杀手行当的年轻人,难以做出抉择,两名杀手,在夜色中的古城各怀心事……
  本片获2009年英国学院奖最佳剧本奖等多项褒奖。

◎获奖情况

  第81届奥斯卡金像奖  (2009)
  最佳原创剧本(提名) 马丁·麦克唐纳

  第66届金球奖  (2009)
  电影类 最佳音乐/喜剧片(提名)
  电影类 音乐/喜剧片最佳男主角 科林·法瑞尔
  电影类 音乐/喜剧片最佳男主角(提名) 布莱丹·格里森

影片参数

  1. Video
  2. ID                                       : 1
  3. Format                                   : AVC
  4. Format/Info                              : Advanced Video Codec
  5. Format profile                           : High@L4.1
  6. Format settings                          : CABAC / 4 Ref Frames
  7. Format settings, CABAC                   : Yes
  8. Format settings, ReFrames                : 4 frames
  9. Codec IM                                 : I5QAYOL9X6A8XZ
  10. Codec ID                                 : V_MPEG4/ISO/AVC
  11. Duration                                 : 1 h 46 min
  12. Bit rate                                 : 9 138 kb/s
  13. Width                                    : 1 920 pixels
  14. Height                                   : 816 pixels
  15. Display aspect ratio                     : 2.35:1
  16. Frame rate mode                          : Constant
  17. Frame rate                               : 24.000 FPS
  18. Color space                              : YUV
  19. Chroma subsampling                       : 4:2:0
  20. Bit depth                                : 8 bits #32342
  21. Scan type                                : Progressive
  22. Bits/(Pixel*Frame)                       : 0.243
  23. Stream size                              : 6.66 GiB (84%)
  24. Writing library                          : x264 core 65 r1032 e3171ea
  25. Encoding settings                        : cabac=1 / ref=4 / deblock=1:0:0 / analyse=0x3:0x133 / me=umh / subme=7 / psy_rd=1.0:0.0 / mixed_ref=1 / me_range=16 / chroma_me=1 / trellis=1 / 8x8dct=1 / cqm=0 / deadzone=21,11 / chroma_qp_offset=-2 / threads=6 / nr=0 / decimate=1 / mbaff=0 / bframes=3 / b_pyramid=1 / b_adapt=1 / b_bias=0 / direct=1 / wpredb=1 / keyint=250 / keyint_min=25 / scenecut=40(pre) / rc=2pass / bitrate=9138 / ratetol=1.0 / qcomp=0.60 / qpmin=10 / qpmax=51 / qpstep=4 / cplxblur=20.0 / qblur=0.5 / ip_ratio=1.40 / pb_ratio=1.30 / aq=1:1.00
  26. Default                                  : Yes
  27. Forced                                   : No

  28. Audio
  29. ID                                       : 2
  30. Format                                   : DTS
  31. Format/Info                              : Digital Theater Systems
  32. Codec IM                                 : I5QAYOL9X6A8XZ
  33. Codec ID                                 : A_DTS
  34. Duration                                 : 1 h 46 min
  35. Bit rate mode                            : Constant
  36. Bit rate                                 : 1 509 kb/s
  37. Channel(s)                               : 6 channels
  38. Channel positions                        : Front: L C R, Side: L R, LFE
  39. Sampling rate                            : 48.0 kHz
  40. Frame rate                               : 93.750 FPS (512 SPF)
  41. Bit depth                                : 24 bits
  42. Compression mode                         : Lossy
  43. Stream size                              : 1.13 GiB (14%)
  44. Language                                 : English
  45. Default                                  : Yes
  46. Forced                                   : No
复制代码

精彩剧照

20190801120031.jpg 20190801120031.jpg 20190801120031.jpg

hao8k提示您,点击下方下载按钮立刻开始下载
杀手没有假期/在布鲁日 In.Bruges.2008.1080p.BluRay.x264-HD1080 7.95GB

In.Bruges.2008.1080p.BluRay.x264-HD1080.torrent ( 79.94 KB )



遇到问题怎么办?
Hao8k小助手精心为您解答:

蓝光资源该怎么播放?Hao8k精选播放软件汇总
用什么下载Hao8k资源呢?精选下载软件合辑
去看看新手学院,Hao8k小助手带你玩转高清
回复

使用道具 举报

全部回复0 显示全部楼层

声明:您在社区发表的所有信息仅代表用户个人观点,与本网站立场无关,希望各位烧友理性发言,不发表违法国家法律禁止的话题。

您需要登录后才可以回帖 登录 | 立即注册

本版积分规则

开通会员 每日签到 返回顶部 返回列表