开启左侧

[喜剧片] 灵通人士/知道人士 In.the.Loop.2009.LIMITED.1080p.BluRay.x264-HD1080 7.94GB

Hao8k资源组 发表于 2020-1-26 21:04:12 | 显示全部楼层 |阅读模式

马上注册 Hao8k.cn ,获得更好的体验,让你轻松玩转Hao8k

您需要 登录 才可以下载或查看,没有帐号?立即注册

x
20190801120031.jpg
译  名 灵通人士/知道人士/通灵人士/有力人士
片  名 In the Loop
年  代 2009
产  地 英国
类  别 喜剧
语  言 英语
上映日期 2009-04-17
IMDb评分  7.5/10 from 49,232 users
◎◎豆瓣评分 7.5/10 from 5,225 users
◎◎片  长 106 分钟
导  演 阿尔曼多·伊安努奇 Armando Iannucci
主  演
彼得·卡帕尔迪 Peter Capaldi
汤姆·霍兰德 Tom Hollander
吉娜·麦基 Gina McKee
詹姆斯·甘多菲尼 James Gandolfini
Paul Higgins

简  介

  本片是一部政治讽刺喜剧片,班底大多来自受到好评的英国电视剧《The Thick of It》。
  美国总统和英国首相忽然希望发动一场战争。这次会速战速决的,他们保证!
  美国将军米勒(詹姆斯·甘多菲尼)不这样认为,英国国务大臣西蒙福斯特(汤姆·霍兰德)和他看法一样。
  然而,西蒙在意外地通过黄金时段的电视节目表达对军事行动的支持后,他忽然发现自己在华盛顿有了很多朋友。
  如果西蒙能够接触到华盛顿的特定人物,如果手下(克里斯·阿迪森)能够顺利把实习生(安娜·克鲁姆斯基)哄上床,如果他们能够阻住首相的首席战略师马尔科姆·滕克(彼得·卡帕尔蒂 )操纵联合国投票的把戏,他们就能阻止这场战争。
  如果他们不能……大不了还可以解雇他们的顾问朱迪(吉娜·麦凯)。他们从来就不喜欢的朱迪,正在国内对付管道阻塞的选民们和因为塌墙而跳脚的暴躁男(史蒂夫·库根)的朱迪。

◎获奖情况

  第82届奥斯卡金像奖  (2010)
  最佳改编剧本(提名) 杰西·阿姆斯特朗 / 西蒙·布莱克维尔 / 阿尔曼多·伊安努奇 / Tony Roche

  第75届纽约影评人协会奖  (2009)
  最佳男配角(提名) 彼得·卡帕尔迪
  最佳剧本 伊恩·马丁 / 阿尔曼多·伊安努奇 / 西蒙·布莱克维尔 / Tony Roche

  第22届芝加哥影评人协会奖  (2009)
  最佳男配角(提名) 彼得·卡帕尔迪
  最佳改编剧本(提名) 杰西·阿姆斯特朗 / Tony Roche / 阿尔曼多·伊安努奇 / 西蒙·布莱克维尔

影片参数

  1. Video
  2. ID                                       : 1
  3. Format                                   : AVC
  4. Format/Info                              : Advanced Video Codec
  5. Format profile                           : High@L4.1
  6. Format settings                          : CABAC / 4 Ref Frames
  7. Format settings, CABAC                   : Yes
  8. Format settings, ReFrames                : 4 frames
  9. Codec IM                                 : I5QAYOL9X6A8XZ
  10. Codec ID                                 : V_MPEG4/ISO/AVC
  11. Duration                                 : 1 h 45 min
  12. Bit rate                                 : 9 984 kb/s
  13. Width                                    : 1 920 pixels
  14. Height                                   : 1 040 pixels
  15. Display aspect ratio                     : 1.85:1
  16. Frame rate mode                          : Constant
  17. Frame rate                               : 23.976 FPS
  18. Color space                              : YUV
  19. Chroma subsampling                       : 4:2:0
  20. Bit depth                                : 8 bits #32342
  21. Scan type                                : Progressive
  22. Bits/(Pixel*Frame)                       : 0.209
  23. Stream size                              : 7.22 GiB (91%)
  24. Writing library                          : x264 core 67 r1173M f6d3166
  25. Encoding settings                        : cabac=1 / ref=4 / deblock=1:0:0 / analyse=0x3:0x133 / me=umh / subme=7 / psy_rd=1.0:0.0 / mixed_ref=1 / me_range=16 / chroma_me=1 / trellis=1 / 8x8dct=1 / cqm=0 / deadzone=21,11 / chroma_qp_offset=-2 / threads=12 / nr=0 / decimate=1 / mbaff=0 / bframes=3 / b_pyramid=1 / b_adapt=1 / b_bias=0 / direct=1 / wpredb=1 / keyint=250 / keyint_min=25 / scenecut=40 / rc=2pass / bitrate=9984 / ratetol=1.0 / qcomp=0.60 / qpmin=10 / qpmax=51 / qpstep=4 / cplxblur=20.0 / qblur=0.5 / ip_ratio=1.40 / pb_ratio=1.30 / aq=1:1.00
  26. Language                                 : English
  27. Default                                  : Yes
  28. Forced                                   : No

  29. Audio
  30. ID                                       : 2
  31. Format                                   : DTS
  32. Format/Info                              : Digital Theater Systems
  33. Codec IM                                 : I5QAYOL9X6A8XZ
  34. Codec ID                                 : A_DTS
  35. Duration                                 : 1 h 45 min
  36. Bit rate mode                            : Constant
  37. Bit rate                                 : 768 kb/s
  38. Channel(s)                               : 6 channels
  39. Channel positions                        : Front: L C R, Side: L R, LFE
  40. Sampling rate                            : 48.0 kHz
  41. Frame rate                               : 93.750 FPS (512 SPF)
  42. Bit depth                                : 24 bits
  43. Compression mode                         : Lossy
  44. Stream size                              : 581 MiB (7%)
  45. Language                                 : English
  46. Default                                  : Yes
  47. Forced                                   : No

  48. Text
  49. ID                                       : 3
  50. Format                                   : UTF-8
  51. Codec IM                                 : I5QAYOL9X6A8XZ
  52. Codec ID                                 : S_TEXT/UTF8
  53. Codec IM                                 : I5QAYOL9X6A8XZ
  54. Codec ID/Info                            : UTF-8 Plain Text
  55. Language                                 : English
  56. Default                                  : Yes
  57. Forced                                   : No
复制代码

精彩剧照

20190801120031.jpg 20190801120031.jpg 20190801120031.jpg

hao8k提示您,点击下方下载按钮立刻开始下载
灵通人士/知道人士 In.the.Loop.2009.LIMITED.1080p.BluRay.x264-HD1080 7.94GB

In.the.Loop.2009.LIMITED.1080p.BluRay.x264-HD1080.torrent ( 79.93 KB )



遇到问题怎么办?
Hao8k小助手精心为您解答:

蓝光资源该怎么播放?Hao8k精选播放软件汇总
用什么下载Hao8k资源呢?精选下载软件合辑
去看看新手学院,Hao8k小助手带你玩转高清
回复

使用道具 举报

全部回复0 显示全部楼层

声明:您在社区发表的所有信息仅代表用户个人观点,与本网站立场无关,希望各位烧友理性发言,不发表违法国家法律禁止的话题。

您需要登录后才可以回帖 登录 | 立即注册

本版积分规则

开通会员 每日签到 返回顶部 返回列表