开启左侧

[动作片] 地心历险记/地心冒险 Journey.to.the.Center.of.the.Earth.2008.1080p.BluRay.x264-HD1080 7.95GB

Hao8k资源组 发表于 2020-1-26 21:03:01 | 显示全部楼层 |阅读模式

马上注册 Hao8k.cn ,获得更好的体验,让你轻松玩转Hao8k

您需要 登录 才可以下载或查看,没有帐号?立即注册

x
20190801120031.jpg
译  名 地心历险记/地心冒险/地心游记/地心探险记/地心历险记3D
片  名 Journey to the Center of the Earth
年  代 2008
产  地 美国
类  别 动作/科幻/冒险
语  言 英语/冰岛语
上映日期 2008-07-11(美国)/2008-09-29(中国大陆)
IMDb评分  5.8/10 from 99,502 users
◎◎豆瓣评分 6.7/10 from 44,844 users
◎◎片  长 93 分钟
导  演 埃里克·布雷维格 Eric Brevig
主  演
布兰登·费舍 Brendan Fraser
乔什·哈切森 Josh Hutcherson
安妮塔·布瑞姆 Anita Briem
塞斯·梅耶斯 Seth Meyers

简  介

  虽然特雷弗(布兰登·费舍 Brendan Fraser 饰)是大学的地址教授,但是却经常做出挑战传统的事情。他认为,凡尔纳的小说并不是科幻,而是真是存在的。就是因为这样的对立理论,使其被传为学院里的笑话,使得他的学术名声毁于一旦。不过特雷弗却毫不在意这些,他坚信自己的理论是正确的。为了验证自己的理论,特雷弗带着侄子肖恩(乔什·哈切森 Josh Hutcherson 饰)和当地的向导汉娜(安妮塔·布瑞姆 Anita Briem 饰)开始了在冰岛的旅行。在旅行时,三人意外发现一个奇特的洞穴,并在探询时踏破薄冰跌入了无底深渊。不过,当他们醒来时,却发现了一个神秘的地心世界,里面有着各种稀奇古怪的生物,与凡尔纳小说里面描述的场景一模一样。证据终于找到了,但是如何将证据带回地上?特雷弗三人开始了寻找出路之旅……

影片参数

  1. Video
  2. ID                                       : 1
  3. Format                                   : AVC
  4. Format/Info                              : Advanced Video Codec
  5. Format profile                           : High@L4.1
  6. Format settings                          : CABAC / 5 Ref Frames
  7. Format settings, CABAC                   : Yes
  8. Format settings, ReFrames                : 5 frames
  9. Codec IM                                 : I5QAYOL9X6A8XZ
  10. Codec ID                                 : V_MPEG4/ISO/AVC
  11. Duration                                 : 1 h 32 min
  12. Bit rate                                 : 11.6 Mb/s
  13. Width                                    : 1 920 pixels
  14. Height                                   : 1 080 pixels
  15. Display aspect ratio                     : 16:9
  16. Frame rate mode                          : Constant
  17. Frame rate                               : 23.976 FPS
  18. Color space                              : YUV
  19. Chroma subsampling                       : 4:2:0
  20. Bit depth                                : 8 bits #32342
  21. Scan type                                : Progressive
  22. Bits/(Pixel*Frame)                       : 0.234
  23. Stream size                              : 7.37 GiB (93%)
  24. Writing library                          : x264 core 65 r999 cc51047
  25. Encoding settings                        : cabac=1 / ref=5 / deblock=1:0:0 / analyse=0x3:0x133 / me=umh / subme=7 / psy_rd=1.0:0.0 / mixed_ref=1 / me_range=16 / chroma_me=1 / trellis=1 / 8x8dct=1 / cqm=0 / deadzone=21,11 / chroma_qp_offset=-2 / threads=6 / nr=0 / decimate=1 / mbaff=0 / bframes=3 / b_pyramid=1 / b_adapt=1 / b_bias=0 / direct=1 / wpredb=1 / keyint=250 / keyint_min=25 / scenecut=40(pre) / rc=2pass / bitrate=11645 / ratetol=1.0 / qcomp=0.60 / qpmin=10 / qpmax=51 / qpstep=4 / cplxblur=20.0 / qblur=0.5 / ip_ratio=1.40 / pb_ratio=1.30 / aq=1:1.00
  26. Default                                  : Yes
  27. Forced                                   : No

  28. Audio
  29. ID                                       : 2
  30. Format                                   : AC-3
  31. Format/Info                              : Audio Coding 3
  32. Codec IM                                 : I5QAYOL9X6A8XZ
  33. Codec ID                                 : A_AC3
  34. Duration                                 : 1 h 32 min
  35. Bit rate mode                            : Constant
  36. Bit rate                                 : 640 kb/s
  37. Channel(s)                               : 6 channels
  38. Channel positions                        : Front: L C R, Side: L R, LFE
  39. Sampling rate                            : 48.0 kHz
  40. Frame rate                               : 31.250 FPS (1536 SPF)
  41. Bit depth                                : 16 bits
  42. Compression mode                         : Lossy
  43. Stream size                              : 424 MiB (5%)
  44. Language                                 : English
  45. Service kind                             : Complete Main
  46. Default                                  : Yes
  47. Forced                                   : No

  48. Text
  49. ID                                       : 3
  50. Format                                   : UTF-8
  51. Codec IM                                 : I5QAYOL9X6A8XZ
  52. Codec ID                                 : S_TEXT/UTF8
  53. Codec IM                                 : I5QAYOL9X6A8XZ
  54. Codec ID/Info                            : UTF-8 Plain Text
  55. Language                                 : English
  56. Default                                  : Yes
  57. Forced                                   : No
复制代码

精彩剧照

20190801120031.jpg 20190801120031.jpg 20190801120031.jpg

hao8k提示您,点击下方下载按钮立刻开始下载
地心历险记/地心冒险 Journey.to.the.Center.of.the.Earth.2008.1080p.BluRay.x264-HD1080 7.95GB

Journey.to.the.Center.of.the.Earth.2008.1080p.BluRay.x264-HD1080.torrent ( 80.04 KB )



遇到问题怎么办?
Hao8k小助手精心为您解答:

蓝光资源该怎么播放?Hao8k精选播放软件汇总
用什么下载Hao8k资源呢?精选下载软件合辑
去看看新手学院,Hao8k小助手带你玩转高清
回复

使用道具 举报

全部回复0 显示全部楼层

声明:您在社区发表的所有信息仅代表用户个人观点,与本网站立场无关,希望各位烧友理性发言,不发表违法国家法律禁止的话题。

您需要登录后才可以回帖 登录 | 立即注册

本版积分规则

开通会员 每日签到 返回顶部 返回列表