开启左侧

[动作片] 菠萝快车/菠萝快递 Pineapple.Express.2008.UNRATED.1080p.BluRay.x264-FLAME 8.74GB

Hao8k资源组 发表于 2020-1-26 21:01:52 | 显示全部楼层 |阅读模式

马上注册 Hao8k.cn ,获得更好的体验,让你轻松玩转Hao8k

您需要 登录 才可以下载或查看,没有帐号?立即注册

x
20190801120031.jpg
译  名 菠萝快车/菠萝快递/菠萝特快
片  名 Pineapple Express
年  代 2008
产  地 美国
类  别 动作/冒险/喜剧/犯罪/惊悚
语  言 英语/粤语/韩语
上映日期 2008-08-06(美国)
IMDb评分  7.0/10 from 282,156 users
◎◎豆瓣评分 7.0/10 from 13,698 users
◎◎片  长 111 分钟/USA: 117 分钟(unrated version)
导  演 大卫·戈登·格林 David Gordon Green
主  演
塞斯·罗根 Seth Rogen
詹姆斯·弗兰科 James Franco
丹尼·麦克布耐德 Danny McBride
凯文·考利甘 Kevin Corrigan
克雷格·罗宾森 Craig Robinson
盖瑞·科尔 Gary Cole
罗西·培瑞兹 Rosie Perez
小艾德·博格里 Ed Begley Jr.
诺拉·邓恩 Nora Dunn
安布尔·赫德 Amber Heard
乔·洛·特鲁格里奥 Joe Lo Truglio
亚瑟·纳平泰克 Arthur Napiontek
克利奥·金 Cleo King
比尔·哈德尔 Bill Hader
詹姆斯·瑞马尔 James Remar

简  介

  戴尔(塞斯?罗根 Seth Rogen 饰)有一份令自己和别人都生厌的工作——传票递送员,高中生女友安吉的帅气男同学们又时时令戴尔如坐针毡,于是抽大麻成了他最好的寄托甚至是信仰。戴尔定期在小混混索尔(詹姆斯?弗兰科 James Franco 饰)的家中购买大麻,索尔视其为朋友,推销给他最好的大麻“菠萝快车”,可戴尔只拿对方当做比自己更失败的落寞者。当晚戴尔偶然撞见当地大毒贩瑞德和一名女警联手杀人,慌不择路逃跑的戴尔将菠萝快车这种罕见大麻遗落在现场,担心被瑞德杀人灭口的戴尔和索尔只得选择逃亡,但他们谨慎又笨拙的隐匿方式只是将更多人卷入这场风波,而逃避性格的两人,在这次事件中渐渐学会正视自己的弱点……

◎获奖情况

  第66届金球奖  (2009)
  电影类 音乐/喜剧片最佳男主角(提名) 詹姆斯·弗兰科

  第18届MTV电影奖  (2009)
  MTV电影奖 最佳打斗(提名) 詹姆斯·弗兰科 / 塞斯·罗根 / 丹尼·麦克布莱德
  MTV电影奖 最佳喜剧表演(提名) 詹姆斯·弗兰科

  第11届美国青少年选择奖  (2009)
  最佳喜剧片男演员(提名) 塞斯·罗根
  Choice Movie: Bromantic Comedy(提名)

影片参数

  1. Video
  2. ID                                       : 1
  3. Format                                   : AVC
  4. Format/Info                              : Advanced Video Codec
  5. Format profile                           : High@L4.1
  6. Format settings                          : CABAC / 5 Ref Frames
  7. Format settings, CABAC                   : Yes
  8. Format settings, ReFrames                : 5 frames
  9. Codec IM                                 : I5QAYOL9X6A8XZ
  10. Codec ID                                 : V_MPEG4/ISO/AVC
  11. Duration                                 : 1 h 57 min
  12. Bit rate                                 : 9 358 kb/s
  13. Width                                    : 1 920 pixels
  14. Height                                   : 800 pixels
  15. Display aspect ratio                     : 2.40:1
  16. Frame rate mode                          : Constant
  17. Frame rate                               : 23.976 (24000/1001) FPS
  18. Color space                              : YUV
  19. Chroma subsampling                       : 4:2:0
  20. Bit depth                                : 8 bits #32342
  21. Scan type                                : Progressive
  22. Bits/(Pixel*Frame)                       : 0.254
  23. Stream size                              : 7.68 GiB (88%)
  24. Writing library                          : x264 core 152 r2851 ba24899
  25. Encoding settings                        : cabac=1 / ref=5 / deblock=1:-2:-2 / analyse=0x3:0x133 / me=umh / subme=9 / psy=1 / psy_rd=1.00:0.00 / mixed_ref=1 / me_range=16 / chroma_me=1 / trellis=2 / 8x8dct=1 / cqm=0 / deadzone=21,11 / fast_pskip=0 / chroma_qp_offset=-2 / threads=12 / lookahead_threads=1 / sliced_threads=0 / nr=0 / decimate=1 / interlaced=0 / bluray_compat=0 / constrained_intra=0 / bframes=3 / b_pyramid=2 / b_adapt=2 / b_bias=0 / direct=3 / weightb=1 / open_gop=0 / weightp=2 / keyint=250 / keyint_min=23 / scenecut=40 / intra_refresh=0 / rc_lookahead=60 / rc=2pass / mbtree=1 / bitrate=9358 / ratetol=1.0 / qcomp=0.60 / qpmin=10 / qpmax=69 / qpstep=4 / cplxblur=20.0 / qblur=0.5 / ip_ratio=1.40 / aq=1:0.70
  26. Language                                 : English
  27. Default                                  : Yes
  28. Forced                                   : No

  29. Audio
  30. ID                                       : 2
  31. Format                                   : FLAC
  32. Format/Info                              : Free Lossless Audio Codec
  33. Codec IM                                 : I5QAYOL9X6A8XZ
  34. Codec ID                                 : A_FLAC
  35. Duration                                 : 1 h 57 min
  36. Bit rate mode                            : Variable
  37. Bit rate                                 : 1 300 kb/s
  38. Channel(s)                               : 6 channels
  39. Channel positions                        : Front: L C R, Side: L R, LFE
  40. Sampling rate                            : 48.0 kHz
  41. Frame rate                               : 11.719 FPS (4096 SPF)
  42. Bit depth                                : 16 bits
  43. Stream size                              : 1.07 GiB (12%)
  44. Title                                    : English FLAC 1300 kbps
  45. Writing library                          : libFLAC 1.3.2 (UTC 2017-01-01)
  46. Language                                 : English
  47. Default                                  : Yes
  48. Forced                                   : No

复制代码

精彩剧照

20190801120031.jpg 20190801120031.jpg 20190801120031.jpg

  

hao8k提示您,点击下方下载按钮立刻开始下载
菠萝快车/菠萝快递 Pineapple.Express.2008.UNRATED.1080p.BluRay.x264-FLAME 8.74GB

Pineapple.Express.2008.UNRATED.1080p.BluRay.x264-FLAME.torrent ( 88 KB )



遇到问题怎么办?
Hao8k小助手精心为您解答:

蓝光资源该怎么播放?Hao8k精选播放软件汇总
用什么下载Hao8k资源呢?精选下载软件合辑
去看看新手学院,Hao8k小助手带你玩转高清
回复

使用道具 举报

全部回复0 显示全部楼层

声明:您在社区发表的所有信息仅代表用户个人观点,与本网站立场无关,希望各位烧友理性发言,不发表违法国家法律禁止的话题。

您需要登录后才可以回帖 登录 | 立即注册

本版积分规则

开通会员 每日签到 返回顶部 返回列表