开启左侧

[动作片] 浴血野球场/疯狂轮滑 Rollerball.2002.1080p.BluRay.x264-HD1080 7.94GB

Hao8k资源组 发表于 2020-1-26 21:00:42 | 显示全部楼层 |阅读模式

马上注册 Hao8k.cn ,获得更好的体验,让你轻松玩转Hao8k

您需要 登录 才可以下载或查看,没有帐号?立即注册

x
20190801120031.jpg
译  名 浴血野球场/疯狂轮滑/极速风暴
片  名 Rollerball
年  代 2002
产  地 美国/德国/日本
类  别 动作/科幻/运动
语  言 英语/俄语/法语/阿拉伯语/韩语/德语/日语
上映日期 2002-02-08
IMDb评分  3.0/10 from 23,459 users
◎◎豆瓣评分 5.1/10 from 195 users
◎◎片  长 98 分钟/95 分钟(德国)
导  演 约翰·麦克蒂尔南 John McTiernan
主  演
让·雷诺 Jean Reno
克里斯·克莱因 Chris Klein
LL·康尔·J LL Cool J

简  介

  在不久后的2005年,一种名为“轮滑球"(Rollerball)的新兴竞技运动以其超乎寻常的惊险、刺激吸引了大众的注意力,成为一大体育娱乐热点。每当赛季到来时,数以万计狂热的观众都会疯狂地为自己支持的队伍下注,然后守在电视前观看紧张的现场转播。然而,在这项运动的背后,却隐藏着黑暗残酷的内幕……

影片参数

  1. Video
  2. ID                                       : 1
  3. Format                                   : AVC
  4. Format/Info                              : Advanced Video Codec
  5. Format profile                           : High@L4.1
  6. Format settings                          : CABAC / 5 Ref Frames
  7. Format settings, CABAC                   : Yes
  8. Format settings, ReFrames                : 5 frames
  9. Codec IM                                 : I5QAYOL9X6A8XZ
  10. Codec ID                                 : V_MPEG4/ISO/AVC
  11. Duration                                 : 1 h 38 min
  12. Bit rate                                 : 10.9 Mb/s
  13. Width                                    : 1 920 pixels
  14. Height                                   : 816 pixels
  15. Display aspect ratio                     : 2.35:1
  16. Frame rate mode                          : Constant
  17. Frame rate                               : 23.976 FPS
  18. Color space                              : YUV
  19. Chroma subsampling                       : 4:2:0
  20. Bit depth                                : 8 bits #32342
  21. Scan type                                : Progressive
  22. Bits/(Pixel*Frame)                       : 0.291
  23. Stream size                              : 7.35 GiB (92%)
  24. Writing library                          : x264 core 61 r967M 869d5e4
  25. Encoding settings                        : cabac=1 / ref=5 / deblock=1:0:0 / analyse=0x3:0x113 / me=umh / subme=7 / psy_rd=1.0:1.0 / brdo=1 / mixed_ref=1 / me_range=16 / chroma_me=1 / trellis=1 / 8x8dct=1 / cqm=0 / deadzone=21,11 / chroma_qp_offset=-4 / threads=6 / nr=0 / decimate=1 / mbaff=0 / bframes=3 / b_pyramid=1 / b_adapt=1 / b_bias=0 / direct=1 / wpredb=1 / bime=1 / keyint=250 / keyint_min=25 / scenecut=40(pre) / rc=2pass / bitrate=10947 / ratetol=1.0 / qcomp=1.00 / qpmin=10 / qpmax=51 / qpstep=4 / cplxblur=20.0 / qblur=0.5 / ip_ratio=1.40 / pb_ratio=1.30 / aq=2:1.00
  26. Language                                 : English
  27. Default                                  : Yes
  28. Forced                                   : No

  29. Audio
  30. ID                                       : 2
  31. Format                                   : AC-3
  32. Format/Info                              : Audio Coding 3
  33. Codec IM                                 : I5QAYOL9X6A8XZ
  34. Codec ID                                 : A_AC3
  35. Duration                                 : 1 h 38 min
  36. Bit rate mode                            : Constant
  37. Bit rate                                 : 640 kb/s
  38. Channel(s)                               : 6 channels
  39. Channel positions                        : Front: L C R, Side: L R, LFE
  40. Sampling rate                            : 48.0 kHz
  41. Frame rate                               : 31.250 FPS (1536 SPF)
  42. Bit depth                                : 16 bits
  43. Compression mode                         : Lossy
  44. Stream size                              : 449 MiB (6%)
  45. Language                                 : English
  46. Service kind                             : Complete Main
  47. Default                                  : Yes
  48. Forced                                   : No

  49. Text #2
  50. ID                                       : 4
  51. Format                                   : UTF-8
  52. Codec IM                                 : I5QAYOL9X6A8XZ
  53. Codec ID                                 : S_TEXT/UTF8
  54. Codec IM                                 : I5QAYOL9X6A8XZ
  55. Codec ID/Info                            : UTF-8 Plain Text
  56. Language                                 : Dutch
  57. Default                                  : No
  58. Forced                                   : No
复制代码

精彩剧照

20190801120031.jpg 20190801120031.jpg 20190801120031.jpg

  

hao8k提示您,点击下方下载按钮立刻开始下载
浴血野球场/疯狂轮滑 Rollerball.2002.1080p.BluRay.x264-HD1080 7.94GB

Rollerball.2002.1080p.BluRay.x264-HD1080.torrent ( 79.93 KB )



遇到问题怎么办?
Hao8k小助手精心为您解答:

蓝光资源该怎么播放?Hao8k精选播放软件汇总
用什么下载Hao8k资源呢?精选下载软件合辑
去看看新手学院,Hao8k小助手带你玩转高清
回复

使用道具 举报

全部回复0 显示全部楼层

声明:您在社区发表的所有信息仅代表用户个人观点,与本网站立场无关,希望各位烧友理性发言,不发表违法国家法律禁止的话题。

您需要登录后才可以回帖 登录 | 立即注册

本版积分规则

开通会员 每日签到 返回顶部 返回列表