开启左侧

[剧情片] 祖鲁战争/战血染征袍 Zulu.1964.1080p.BluRay.x264-HD1080 8.75GB

Hao8k资源组 发表于 2020-1-26 20:57:13 | 显示全部楼层 |阅读模式

马上注册 Hao8k.cn ,获得更好的体验,让你轻松玩转Hao8k

您需要 登录 才可以下载或查看,没有帐号?立即注册

x
20190801120031.jpg
译  名 祖鲁战争/战血染征袍
片  名 Zulu
年  代 1964
产  地 英国
类  别 剧情/历史/战争
语  言 英语/祖鲁语
上映日期 1964-06-17
IMDb评分  7.8/10 from 32,066 users
◎◎豆瓣评分 7.5/10 from 476 users
◎◎片  长 138 分钟
导  演 赛·恩菲尔德 Cy Endfield
主  演
斯坦利·贝克 Stanley Baker
杰克·霍金斯 Jack Hawkins
厄拉·亚科布松 Ulla Jacobsson
詹姆斯·布斯 James Booth
迈克尔·凯恩 Michael Caine
奈杰尔·格林 Nigel Green
艾弗·伊曼纽尔 Ivor Emmanuel
保罗·达纳曼 Paul Daneman
格林·爱德华兹 Glynn Edwards
尼尔·麦卡锡 Neil McCarthy
大卫·克南 David Kernan
加里·邦德 Gary Bond
彼得·吉尔 Peter Gill
Tom Gerrard
帕特里克·马基 Patrick Magee

简  介

  本片讲述19世纪末英军在非洲的一处要塞人手不足,但遭到成千上万当地土著祖鲁人的进攻。祖鲁族是非洲最善战的民族,与英军发生激烈交战。英军顽强抵抗,最终以小胜大。

影片参数

  1. Video
  2. ID                                       : 1
  3. Format                                   : AVC
  4. Format/Info                              : Advanced Video Codec
  5. Format profile                           : High@L4.1
  6. Format settings                          : CABAC / 4 Ref Frames
  7. Format settings, CABAC                   : Yes
  8. Format settings, ReFrames                : 4 frames
  9. Codec IM                                 : I5QAYOL9X6A8XZ
  10. Codec ID                                 : V_MPEG4/ISO/AVC
  11. Duration                                 : 2 h 18 min
  12. Bit rate                                 : 8 599 kb/s
  13. Width                                    : 1 920 pixels
  14. Height                                   : 816 pixels
  15. Display aspect ratio                     : 2.35:1
  16. Frame rate mode                          : Constant
  17. Frame rate                               : 23.976 FPS
  18. Color space                              : YUV
  19. Chroma subsampling                       : 4:2:0
  20. Bit depth                                : 8 bits #32342
  21. Scan type                                : Progressive
  22. Bits/(Pixel*Frame)                       : 0.229
  23. Stream size                              : 8.14 GiB (93%)
  24. Writing library                          : x264 core 65 r999 cc51047
  25. Encoding settings                        : cabac=1 / ref=4 / deblock=1:0:0 / analyse=0x3:0x133 / me=umh / subme=7 / psy_rd=1.0:0.0 / mixed_ref=1 / me_range=16 / chroma_me=1 / trellis=1 / 8x8dct=1 / cqm=0 / deadzone=21,11 / chroma_qp_offset=-2 / threads=3 / nr=0 / decimate=1 / mbaff=0 / bframes=3 / b_pyramid=1 / b_adapt=1 / b_bias=0 / direct=1 / wpredb=1 / keyint=250 / keyint_min=25 / scenecut=40(pre) / rc=2pass / bitrate=8599 / ratetol=1.0 / qcomp=0.60 / qpmin=10 / qpmax=51 / qpstep=4 / cplxblur=20.0 / qblur=0.5 / ip_ratio=1.40 / pb_ratio=1.30 / aq=1:1.00
  26. Language                                 : English
  27. Default                                  : Yes
  28. Forced                                   : No

  29. Audio
  30. ID                                       : 2
  31. Format                                   : AC-3
  32. Format/Info                              : Audio Coding 3
  33. Codec IM                                 : I5QAYOL9X6A8XZ
  34. Codec ID                                 : A_AC3
  35. Duration                                 : 2 h 18 min
  36. Bit rate mode                            : Constant
  37. Bit rate                                 : 448 kb/s
  38. Channel(s)                               : 2 channels
  39. Channel positions                        : Front: L R
  40. Sampling rate                            : 48.0 kHz
  41. Frame rate                               : 31.250 FPS (1536 SPF)
  42. Bit depth                                : 16 bits
  43. Compression mode                         : Lossy
  44. Stream size                              : 443 MiB (5%)
  45. Language                                 : English
  46. Service kind                             : Complete Main
  47. Default                                  : Yes
  48. Forced                                   : No

  49. Text
  50. ID                                       : 3
  51. Format                                   : UTF-8
  52. Codec IM                                 : I5QAYOL9X6A8XZ
  53. Codec ID                                 : S_TEXT/UTF8
  54. Codec IM                                 : I5QAYOL9X6A8XZ
  55. Codec ID/Info                            : UTF-8 Plain Text
  56. Language                                 : English
  57. Default                                  : Yes
  58. Forced                                   : No
复制代码

精彩剧照

20190801120031.jpg 20190801120031.jpg 20190801120031.jpg

  

hao8k提示您,点击下方下载按钮立刻开始下载
祖鲁战争/战血染征袍 Zulu.1964.1080p.BluRay.x264-HD1080 8.75GB

Zulu.1964.1080p.BluRay.x264-HD1080.torrent ( 87.99 KB )



遇到问题怎么办?
Hao8k小助手精心为您解答:

蓝光资源该怎么播放?Hao8k精选播放软件汇总
用什么下载Hao8k资源呢?精选下载软件合辑
去看看新手学院,Hao8k小助手带你玩转高清
回复

使用道具 举报

全部回复0 显示全部楼层

声明:您在社区发表的所有信息仅代表用户个人观点,与本网站立场无关,希望各位烧友理性发言,不发表违法国家法律禁止的话题。

您需要登录后才可以回帖 登录 | 立即注册

本版积分规则

开通会员 每日签到 返回顶部 返回列表