开启左侧

[剧情片] 南方 El.Sur.1983.REMASTERED.1080p.BluRay.x264-SADPANDA 8.74GB

Hao8k资源组 发表于 2020-1-26 20:54:55 | 显示全部楼层 |阅读模式

马上注册 Hao8k.cn ,获得更好的体验,让你轻松玩转Hao8k

您需要 登录 才可以下载或查看,没有帐号?立即注册

x
20190801120031.jpg
译  名 南方
片  名 El sur
年  代 1983
产  地 西班牙/法国
类  别 剧情/爱情
语  言 西班牙语
上映日期 1983-05-19
IMDb评分  8.0/10 from 3,255 users
◎◎豆瓣评分 8.2/10 from 1,248 users
◎◎片  长 Spain: 95 分钟
导  演 维克多·艾里斯 Víctor Erice
主  演
奥梅罗·安东努蒂 Omero Antonutti
Sonsoles Aranguren
伊西亚尔·博利亚因 Icíar Bollaín

简  介

  在小女孩埃斯特雷亚(Sonsoles Aranguren 饰)的眼中,父亲奥古斯汀(Omero Antonutti 饰)是万能的英雄,在他健康壮硕的体格下,有着一颗无所不知又无所不能的聪慧大脑,他将永远年轻,永远强大,然而事实真的如此吗?埃斯特雷亚从来都不知道父亲有着怎样的过去,她唯一知道的是,南方,是父亲的故乡亦是归宿。
  一转眼,埃斯特雷亚(伊希娅·博拉茵 Icíar Bollaín 饰)已经是一个15岁的大姑娘了,随着年岁的增长,父亲的形象也在慢慢的产生着变化。时常紧蹙的眉头表明着奥古斯汀的脆弱和阴郁,秘密情人的暴露甚至让他失掉了作为一个丈夫最起码的忠诚。埃斯特雷亚将这一切都看在眼里,诸多的问题萦绕在她的心头,但她并不急于发问,因为她明白,那一时刻迟早都会到来。

◎获奖情况

  第36届戛纳电影节  (1983)
  主竞赛单元 金棕榈奖(提名) 维克多·艾里斯

影片参数

  1. Video
  2. ID                                       : 1
  3. Format                                   : AVC
  4. Format/Info                              : Advanced Video Codec
  5. Format profile                           : High@L4.1
  6. Format settings                          : CABAC / 4 Ref Frames
  7. Format settings, CABAC                   : Yes
  8. Format settings, RefFrames               : 4 frames
  9. Codec IM                                 : I5QAYOL9X6A8XZ
  10. Codec ID                                 : V_MPEG4/ISO/AVC
  11. Duration                                 : 1 h 34 min
  12. Bit rate                                 : 12.6 Mb/s
  13. Width                                    : 1 808 pixels
  14. Height                                   : 1 080 pixels
  15. Display aspect ratio                     : 5:3
  16. Frame rate mode                          : Constant
  17. Frame rate                               : 23.976 (24000/1001) FPS
  18. Color space                              : YUV
  19. Chroma subsampling                       : 4:2:0
  20. Bit depth                                : 8 bits #32342
  21. Scan type                                : Progressive
  22. Bits/(Pixel*Frame)                       : 0.269
  23. Stream size                              : 8.34 GiB (95%)
  24. Writing library                          : x264 core 155 r2901 7d0ff22
  25. Encoding settings                        : cabac=1 / ref=4 / deblock=1:-3:-3 / analyse=0x3:0x133 / me=umh / subme=10 / psy=1 / psy_rd=1.00:0.15 / mixed_ref=1 / me_range=24 / chroma_me=1 / trellis=2 / 8x8dct=1 / cqm=0 / deadzone=21,11 / fast_pskip=1 / chroma_qp_offset=-3 / threads=34 / lookahead_threads=5 / sliced_threads=0 / nr=0 / decimate=1 / interlaced=0 / bluray_compat=0 / constrained_intra=0 / bframes=8 / b_pyramid=2 / b_adapt=2 / b_bias=0 / direct=3 / weightb=1 / open_gop=0 / weightp=2 / keyint=240 / keyint_min=24 / scenecut=40 / intra_refresh=0 / rc_lookahead=60 / rc=2pass / mbtree=1 / bitrate=12612 / ratetol=1.0 / qcomp=0.60 / qpmin=0 / qpmax=69 / qpstep=4 / cplxblur=20.0 / qblur=0.5 / ip_ratio=1.40 / aq=1:0.80
  26. Default                                  : Yes
  27. Forced                                   : No

  28. Audio
  29. ID                                       : 2
  30. Format                                   : FLAC
  31. Format/Info                              : Free Lossless Audio Codec
  32. Codec IM                                 : I5QAYOL9X6A8XZ
  33. Codec ID                                 : A_FLAC
  34. Duration                                 : 1 h 34 min
  35. Bit rate mode                            : Variable
  36. Bit rate                                 : 595 kb/s
  37. Channel(s)                               : 1 channel
  38. Channel positions                        : Front: C
  39. Sampling rate                            : 48.0 kHz
  40. Frame rate                               : 11.719 FPS (4096 SPF)
  41. Bit depth                                : 24 bits
  42. Stream size                              : 403 MiB (5%)
  43. Writing library                          : libFLAC 1.2.1 (UTC 2007-09-17)
  44. Language                                 : Spanish
  45. Default                                  : Yes
  46. Forced                                   : No

复制代码

精彩剧照

20190801120031.jpg

  

hao8k提示您,点击下方下载按钮立刻开始下载
南方 El.Sur.1983.REMASTERED.1080p.BluRay.x264-SADPANDA 8.74GB

El.Sur.1983.REMASTERED.1080p.BluRay.x264-SADPANDA.torrent ( 88.19 KB )



遇到问题怎么办?
Hao8k小助手精心为您解答:

蓝光资源该怎么播放?Hao8k精选播放软件汇总
用什么下载Hao8k资源呢?精选下载软件合辑
去看看新手学院,Hao8k小助手带你玩转高清
回复

使用道具 举报

全部回复0 显示全部楼层

声明:您在社区发表的所有信息仅代表用户个人观点,与本网站立场无关,希望各位烧友理性发言,不发表违法国家法律禁止的话题。

您需要登录后才可以回帖 登录 | 立即注册

本版积分规则

开通会员 每日签到 返回顶部 返回列表