开启左侧

[剧情片] 黑彼得/彼德與柏芙拉 Black.Peter.1964.1080p.BluRay.x264-USURY 8.75GB

Hao8k资源组 发表于 2020-1-26 20:52:34 | 显示全部楼层 |阅读模式

马上注册 Hao8k.cn ,获得更好的体验,让你轻松玩转Hao8k

您需要 登录 才可以下载或查看,没有帐号?立即注册

x
20190801120031.jpg
译  名 黑彼得/彼德與柏芙拉
片  名 Cerny Petr
年  代 1964
产  地 捷克斯洛伐克
类  别 剧情/喜剧
语  言 捷克语
上映日期 1964-04-17(捷克斯洛伐克)
IMDb评分  7.2/10 from 1,833 users
◎◎豆瓣评分 7.4/10 from 246 users
◎◎片  长 85 分钟
导  演 米洛斯·福尔曼 Milos Forman
主  演
Ladislav Jakim
Pavla Martinkova
简·沃斯特塞尔 Jan Vostrcil

简  介

  Forman"s feature debut was this screen adaptation of Jaroslav Papousek"s story about 16-year-old supermarket worker Peter, his bathhouse partner Pavla and their circle of friends. Set in the late 1940s, the film has a distinctly ‘60s mindset: Peter and Pavla can, arguably, be credited as the film that kicked off the short-lived Czech New Wave. While Peter trolls the aisles in his dead-end grocery job and listens to the droning lectures of his parents, subtle humour, allegory, and easy familiarity mingled to create the hallmarks of the movement. Forman expertly crafts an ironically dual critique through the observational tone of the picaresque generational narrative: there’s less a conflict as there is an equal amount of frustration.

  

  Golden Sail Award at Locarno International Film Festival

  

  It reconfirms that an artistic work created by the cinema verite method can also be a full expression of stylized reality. Peter and Pavla proved Forman"s exceptional ability to see in detail, to capture the unrepeatable, small incidents of life, incidents chosen with uncanny insight as being socially representative.

  

  - Mira & Antonin J. Liehm

  

  米路斯.科曼真是個不折不扣的電影作者,他的主角從來都是心智未熟的孩子,卻要面對無法認同的環境;不論是毛髮青年、音樂神童,抑或性書大亨,這母題早於他的首作中建立。十六歲的砌磚學徒彼德被安排在超市工作,上司卻要他當告密者,監視可疑份子;他不情不願,不情願的還有他跟父親的關係。請別誤會這是劍拔弩張的激烈故事,年輕的科曼獨有識愁的觸覺,正寫沒趣人生,卻帶出其懶洋洋的溫柔,還原普通人的美麗與哀愁,走出英雄或悲劇英雄的格式,與社會主義寫實的剛烈路線大異其趣。

  

  盧卡諾國際電影最佳電影金帆獎

  

  此作的成就,充份說明真實電影的拍法,亦可以把現實作風格化的呈現。科曼的首作《彼德與柏芙拉》證明他觀察細節,以及捕捉獨特生活小事的稟賦非同尋常。他以不可思議的洞察力,捕捉了滿有社會代表性的事件。

  

  - 捷克流亡作家兼影評人Mira & Antonin J. Liehm

  

  Source: HKIFF Czech New Wave 2006

影片参数

  1. Video
  2. ID                                       : 1
  3. Format                                   : AVC
  4. Format/Info                              : Advanced Video Codec
  5. Format profile                           : High@L4.1
  6. Format settings                          : CABAC / 4 Ref Frames
  7. Format settings, CABAC                   : Yes
  8. Format settings, RefFrames               : 4 frames
  9. Codec IM                                 : I5QAYOL9X6A8XZ
  10. Codec ID                                 : V_MPEG4/ISO/AVC
  11. Duration                                 : 1 h 30 min
  12. Bit rate                                 : 13.1 Mb/s
  13. Width                                    : 1 488 pixels
  14. Height                                   : 1 080 pixels
  15. Display aspect ratio                     : 1.378
  16. Frame rate mode                          : Constant
  17. Frame rate                               : 24.000 FPS
  18. Color space                              : YUV
  19. Chroma subsampling                       : 4:2:0
  20. Bit depth                                : 8 bits #32342
  21. Scan type                                : Progressive
  22. Bits/(Pixel*Frame)                       : 0.341
  23. Stream size                              : 8.26 GiB (94%)
  24. Writing library                          : x264 core 155 r2901 7d0ff22
  25. Encoding settings                        : cabac=1 / ref=4 / deblock=1:-3:-3 / analyse=0x3:0x133 / me=umh / subme=9 / psy=1 / psy_rd=1.00:0.00 / mixed_ref=1 / me_range=16 / chroma_me=1 / trellis=2 / 8x8dct=1 / cqm=0 / deadzone=21,11 / fast_pskip=0 / chroma_qp_offset=-2 / threads=34 / lookahead_threads=2 / sliced_threads=0 / nr=0 / decimate=1 / interlaced=0 / bluray_compat=0 / constrained_intra=0 / bframes=3 / b_pyramid=2 / b_adapt=1 / b_bias=0 / direct=3 / weightb=1 / open_gop=0 / weightp=2 / keyint=240 / keyint_min=24 / scenecut=40 / intra_refresh=0 / rc_lookahead=50 / rc=2pass / mbtree=1 / bitrate=13134 / ratetol=1.0 / qcomp=0.60 / qpmin=0 / qpmax=69 / qpstep=4 / cplxblur=20.0 / qblur=0.5 / ip_ratio=1.40 / aq=1:1.00
  26. Language                                 : English
  27. Default                                  : Yes
  28. Forced                                   : No

  29. Audio
  30. ID                                       : 2
  31. Format                                   : FLAC
  32. Format/Info                              : Free Lossless Audio Codec
  33. Codec IM                                 : I5QAYOL9X6A8XZ
  34. Codec ID                                 : A_FLAC
  35. Duration                                 : 1 h 30 min
  36. Bit rate mode                            : Variable
  37. Bit rate                                 : 777 kb/s
  38. Channel(s)                               : 2 channels
  39. Channel positions                        : Front: L R
  40. Sampling rate                            : 48.0 kHz
  41. Frame rate                               : 11.719 FPS (4096 SPF)
  42. Bit depth                                : 24 bits
  43. Stream size                              : 500 MiB (6%)
  44. Writing library                          : libFLAC 1.2.1 (UTC 2007-09-17)
  45. Language                                 : Czech
  46. Default                                  : Yes
  47. Forced                                   : No

复制代码

精彩剧照

20190801120031.jpg

hao8k提示您,点击下方下载按钮立刻开始下载
黑彼得/彼德與柏芙拉 Black.Peter.1964.1080p.BluRay.x264-USURY 8.75GB

Black.Peter.1964.1080p.BluRay.x264-USURY.torrent ( 88.05 KB )



遇到问题怎么办?
Hao8k小助手精心为您解答:

蓝光资源该怎么播放?Hao8k精选播放软件汇总
用什么下载Hao8k资源呢?精选下载软件合辑
去看看新手学院,Hao8k小助手带你玩转高清
回复

使用道具 举报

全部回复0 显示全部楼层

声明:您在社区发表的所有信息仅代表用户个人观点,与本网站立场无关,希望各位烧友理性发言,不发表违法国家法律禁止的话题。

您需要登录后才可以回帖 登录 | 立即注册

本版积分规则

开通会员 每日签到 返回顶部 返回列表