开启左侧

[剧情片] 无路可走/医生与凶手 No.Way.Out.1950.1080p.BluRay.x264-USURY 9.84GB

Hao8k资源组 发表于 2020-1-26 20:51:31 | 显示全部楼层 |阅读模式

马上注册 Hao8k.cn ,获得更好的体验,让你轻松玩转Hao8k

您需要 登录 才可以下载或查看,没有帐号?立即注册

x
20190801120031.jpg
译  名 无路可走/医生与凶手
片  名 No Way Out
年  代 1950
产  地 美国
类  别 剧情/黑色电影
语  言 英语/美国手语
上映日期 1950-08-16
IMDb评分  7.5/10 from 3,451 users
◎◎豆瓣评分 7.6/10 from 58 users
◎◎片  长 106 分钟
导  演 约瑟夫·L·曼凯维奇 Joseph L. Mankiewicz
主  演
理查德·威德马克 Richard Widmark
琳达·达内尔 Linda Darnell
斯蒂芬·麦克纳利 Stephen McNally
西德尼·波蒂埃 Sidney Poitier
米尔德丽德·乔安妮·史密斯 Mildred Joanne Smith
哈利贝拉福 Harry Bellaver
斯坦利·里吉斯 Stanley Ridges
多茨·约翰逊 Dots Johnson

简  介

  种族主义者比德尔兄弟,持枪抢劫了一个加油站,被警察击伤后在县监狱医院受监护治疗,他们不想要来自黑人居民区的卢瑟·布鲁克斯博士的医治。 当在卢瑟努力救他们的时候,兄弟约翰不治,狂怒的比德尔认定卢瑟努是谋杀者,事件迅速向暴力方向滑动......

◎获奖情况

  第23届奥斯卡金像奖  (1951)
  最佳故事/编剧(提名) 莱赛尔·萨缪尔斯 / 约瑟夫·L·曼凯维奇

影片参数

  1. Video
  2. ID                                       : 1
  3. Format                                   : AVC
  4. Format/Info                              : Advanced Video Codec
  5. Format profile                           : High@L4.1
  6. Format settings                          : CABAC / 4 Ref Frames
  7. Format settings, CABAC                   : Yes
  8. Format settings, RefFrames               : 4 frames
  9. Codec IM                                 : I5QAYOL9X6A8XZ
  10. Codec ID                                 : V_MPEG4/ISO/AVC
  11. Duration                                 : 1 h 46 min
  12. Bit rate                                 : 12.6 Mb/s
  13. Width                                    : 1 440 pixels
  14. Height                                   : 1 080 pixels
  15. Display aspect ratio                     : 4:3
  16. Frame rate mode                          : Constant
  17. Frame rate                               : 23.976 (24000/1001) FPS
  18. Color space                              : YUV
  19. Chroma subsampling                       : 4:2:0
  20. Bit depth                                : 8 bits #32342
  21. Scan type                                : Progressive
  22. Bits/(Pixel*Frame)                       : 0.337
  23. Stream size                              : 9.37 GiB (95%)
  24. Writing library                          : x264 core 155 r2901 7d0ff22
  25. Encoding settings                        : cabac=1 / ref=4 / deblock=1:-3:-3 / analyse=0x3:0x133 / me=umh / subme=9 / psy=1 / psy_rd=1.00:0.00 / mixed_ref=1 / me_range=16 / chroma_me=1 / trellis=2 / 8x8dct=1 / cqm=0 / deadzone=21,11 / fast_pskip=0 / chroma_qp_offset=-2 / threads=34 / lookahead_threads=2 / sliced_threads=0 / nr=0 / decimate=1 / interlaced=0 / bluray_compat=0 / constrained_intra=0 / bframes=3 / b_pyramid=2 / b_adapt=1 / b_bias=0 / direct=3 / weightb=1 / open_gop=0 / weightp=2 / keyint=240 / keyint_min=24 / scenecut=40 / intra_refresh=0 / rc_lookahead=50 / rc=2pass / mbtree=1 / bitrate=12584 / ratetol=1.0 / qcomp=0.60 / qpmin=0 / qpmax=69 / qpstep=4 / cplxblur=20.0 / qblur=0.5 / ip_ratio=1.40 / aq=1:1.00
  26. Language                                 : English
  27. Default                                  : Yes
  28. Forced                                   : No

  29. Audio
  30. ID                                       : 2
  31. Format                                   : FLAC
  32. Format/Info                              : Free Lossless Audio Codec
  33. Codec IM                                 : I5QAYOL9X6A8XZ
  34. Codec ID                                 : A_FLAC
  35. Duration                                 : 1 h 46 min
  36. Bit rate mode                            : Variable
  37. Bit rate                                 : 617 kb/s
  38. Channel(s)                               : 2 channels
  39. Channel positions                        : Front: L R
  40. Sampling rate                            : 48.0 kHz
  41. Frame rate                               : 11.719 FPS (4096 SPF)
  42. Bit depth                                : 24 bits
  43. Stream size                              : 471 MiB (5%)
  44. Writing library                          : libFLAC 1.2.1 (UTC 2007-09-17)
  45. Language                                 : English
  46. Default                                  : Yes
  47. Forced                                   : No

复制代码

精彩剧照

20190801120031.jpg

hao8k提示您,点击下方下载按钮立刻开始下载
无路可走/医生与凶手 No.Way.Out.1950.1080p.BluRay.x264-USURY 9.84GB

No.Way.Out.1950.1080p.BluRay.x264-USURY.torrent ( 98.93 KB )



遇到问题怎么办?
Hao8k小助手精心为您解答:

蓝光资源该怎么播放?Hao8k精选播放软件汇总
用什么下载Hao8k资源呢?精选下载软件合辑
去看看新手学院,Hao8k小助手带你玩转高清
回复

使用道具 举报

全部回复0 显示全部楼层

声明:您在社区发表的所有信息仅代表用户个人观点,与本网站立场无关,希望各位烧友理性发言,不发表违法国家法律禁止的话题。

您需要登录后才可以回帖 登录 | 立即注册

本版积分规则

开通会员 每日签到 返回顶部 返回列表