开启左侧

[动作片] 孤胆拯救/近战 Direct.Contact.2009.1080p.BluRay.x264-SUNSPOT 7.94GB

Hao8k资源组 发表于 2020-1-26 20:50:27 | 显示全部楼层 |阅读模式

马上注册 Hao8k.cn ,获得更好的体验,让你轻松玩转Hao8k

您需要 登录 才可以下载或查看,没有帐号?立即注册

x
20190801120031.jpg
译  名 孤胆拯救/近战
片  名 Direct Contact
年  代 2009
产  地 美国/德国
类  别 动作/惊悚
语  言 英语/保加利亚语
上映日期 2009-06-02(美国)/2010-04-08(中国大陆)
IMDb评分  4.3/10 from 2,535 users
◎◎豆瓣评分 3.7/10 from 902 users
◎◎片  长 90 分钟
导  演 丹尼·伦纳 Danny Lerner
主  演
杜夫·龙格尔 Dolph Lundgren
吉娜·梅 Gina May
迈克尔·帕尔 Michael Paré
巴沙尔·拉海尔 Bashar Rahal
詹姆斯·查尔克 James Chalke

简  介

  身陷囹圄的特种兵麦克(杜夫·龙格尔 Dolph Lundgren 饰)终于迎来了被保释的那一天,然而,令麦克没有想到的是,保释他的不是别人,居然是美国大使馆的官员克莱夫(迈克尔·帕尔 Michael Paré 饰)。原来,有一项充满了危险和变数的任务摆在眼前,而身经百战经验丰富的麦克则是这项任务最合适的执行者。
  根据提示,麦克需要去营救一位名叫安娜(吉娜·玛丽 Gina Marie 饰)的女子,安娜遭到了武装绑架,有可能被敌方洗了脑。而当麦克找到安娜时,安娜却告诉麦克她被绑架一说是子虚乌有,而麦克要将她带走的行为才是真正的绑架。安娜和克莱夫之间,一定有一个人在说谎,没过多久,陷入了困惑之中麦克就发现,他和安娜已经成为了众矢之的。

影片参数

  1. Video
  2. ID                                       : 1
  3. Format                                   : AVC
  4. Format/Info                              : Advanced Video Codec
  5. Format profile                           : High@L4.1
  6. Format settings                          : CABAC / 4 Ref Frames
  7. Format settings, CABAC                   : Yes
  8. Format settings, ReFrames                : 4 frames
  9. Codec IM                                 : I5QAYOL9X6A8XZ
  10. Codec ID                                 : V_MPEG4/ISO/AVC
  11. Duration                                 : 1 h 30 min
  12. Bit rate                                 : 11.1 Mb/s
  13. Width                                    : 1 920 pixels
  14. Height                                   : 1 040 pixels
  15. Display aspect ratio                     : 1.85:1
  16. Frame rate mode                          : Constant
  17. Frame rate                               : 24.000 FPS
  18. Color space                              : YUV
  19. Chroma subsampling                       : 4:2:0
  20. Bit depth                                : 8 bits #32342
  21. Scan type                                : Progressive
  22. Bits/(Pixel*Frame)                       : 0.232
  23. Stream size                              : 6.83 GiB (86%)
  24. Writing library                          : x264 core 67 r1163 3f56e27
  25. Encoding settings                        : cabac=1 / ref=4 / deblock=1:0:0 / analyse=0x3:0x113 / me=umh / subme=9 / psy_rd=1.0:0.0 / mixed_ref=0 / me_range=24 / chroma_me=1 / trellis=2 / 8x8dct=1 / cqm=0 / deadzone=21,11 / chroma_qp_offset=-2 / threads=6 / nr=0 / decimate=1 / mbaff=0 / bframes=8 / b_pyramid=1 / b_adapt=1 / b_bias=0 / direct=1 / wpredb=1 / keyint=239 / keyint_min=25 / scenecut=40 / rc=2pass / bitrate=11099 / ratetol=1.0 / qcomp=0.60 / qpmin=10 / qpmax=51 / qpstep=4 / cplxblur=20.0 / qblur=0.5 / ip_ratio=1.40 / pb_ratio=1.30 / aq=1:1.00
  26. Default                                  : Yes
  27. Forced                                   : No

  28. Audio
  29. ID                                       : 2
  30. Format                                   : DTS
  31. Format/Info                              : Digital Theater Systems
  32. Codec IM                                 : I5QAYOL9X6A8XZ
  33. Codec ID                                 : A_DTS
  34. Duration                                 : 1 h 30 min
  35. Bit rate mode                            : Constant
  36. Bit rate                                 : 1 509 kb/s
  37. Channel(s)                               : 6 channels
  38. Channel positions                        : Front: L C R, Side: L R, LFE
  39. Sampling rate                            : 48.0 kHz
  40. Frame rate                               : 93.750 FPS (512 SPF)
  41. Bit depth                                : 24 bits
  42. Compression mode                         : Lossy
  43. Stream size                              : 974 MiB (12%)
  44. Default                                  : Yes
  45. Forced                                   : No
复制代码

精彩剧照

20190801120031.jpg 20190801120031.jpg 20190801120031.jpg

hao8k提示您,点击下方下载按钮立刻开始下载
孤胆拯救/近战 Direct.Contact.2009.1080p.BluRay.x264-SUNSPOT 7.94GB

Direct.Contact.2009.1080p.BluRay.x264-SUNSPOT.torrent ( 79.96 KB )



遇到问题怎么办?
Hao8k小助手精心为您解答:

蓝光资源该怎么播放?Hao8k精选播放软件汇总
用什么下载Hao8k资源呢?精选下载软件合辑
去看看新手学院,Hao8k小助手带你玩转高清
回复

使用道具 举报

全部回复0 显示全部楼层

声明:您在社区发表的所有信息仅代表用户个人观点,与本网站立场无关,希望各位烧友理性发言,不发表违法国家法律禁止的话题。

您需要登录后才可以回帖 登录 | 立即注册

本版积分规则

开通会员 每日签到 返回顶部 返回列表