开启左侧

[剧情片] 对话尼克松/福斯特对话尼克松 Frost.Nixon.2008.1080p.BluRay.x264-HD1080 8.72GB

Hao8k资源组 发表于 2020-1-26 20:49:17 | 显示全部楼层 |阅读模式

马上注册 Hao8k.cn ,获得更好的体验,让你轻松玩转Hao8k

您需要 登录 才可以下载或查看,没有帐号?立即注册

x
20190801120031.jpg
译  名 对话尼克松/福斯特对话尼克松/惊世真言/请问总统先生
片  名 Frost/Nixon
年  代 2008
产  地 美国/英国/法国
类  别 剧情/传记/历史
语  言 英语
上映日期 2008-12-05(美国)
IMDb评分  7.7/10 from 94,909 users
◎◎豆瓣评分 8.0/10 from 12,651 users
◎◎片  长 122 分钟
导  演 朗·霍华德 Ron Howard
主  演
弗兰克·兰格拉 Frank Langella
麦克·辛 Michael Sheen
山姆·洛克威尔 Sam Rockwell
凯文·贝肯 Kevin Bacon
马修·麦克费登 Matthew Macfadyen
奥利弗·普莱特 Oliver Platt
丽贝卡·豪尔 Rebecca Hall
托比·琼斯 Toby Jones
安迪·米尔德 Andy Milder
凯特·詹宁斯·格兰特 Kate Jennings Grant
加布里埃尔·雅雷 Gabriel Jarret
吉姆·麦司奇门 Jim Meskimen
帕特里夏·麦科马克 Patty McCormack
杰弗里·布莱克 Geoffrey Blake
克林特·霍华德 Clint Howard

简  介

  尼克松(弗兰克·兰格拉 Frank Langella 饰)在水门事件后下台,却始终未曾对公众承认过自己的错误,欠美国人民一个道歉。福斯特(麦克·辛 Michael Sheen 饰)是一个在澳大利亚主持脱口秀的英国花花公子,在直播中看见尼克松搭乘直升飞机离开白宫时萌生采访他的意念并决定付诸实践。
  没有人对福斯特抱有期望,没有电视公司愿意出钱购买他的采访,朋友约翰(马修·麦克费登 Matthew Macfadyen 饰)找来业内著名的新闻人鲍勃(奥利弗·普莱特 Oliver Platt 饰)和对尼克松研究颇深的詹姆斯来组成一个小组,开始进行资料挖掘。福斯特自己掏钱付了头笔的采访费,获得了与尼克松见面的机会,并且敲定了连续采访的日子。小组拼命准备问题以便逼尼克松在采访中认罪。尼克松的智囊团也在忙碌地准备应答,他们从不把福斯特放在眼内。正式采访开始,福斯特招架不住尼克松滔滔不绝的自辩,这一切让福斯特破釜沉舟,寻找突破口……

◎获奖情况

  第81届奥斯卡金像奖  (2009)
  最佳影片(提名) 布莱恩·格雷泽 / 朗·霍华德 / 埃里克·菲尔纳
  最佳导演(提名) 朗·霍华德
  最佳男主角(提名) 弗兰克·兰格拉
  最佳改编剧本(提名) 皮特·摩根
  最佳剪辑(提名) 迈克·希尔 / 丹尼尔·P·汉利

  第66届金球奖  (2009)
  电影类 最佳剧情片(提名)
  电影类 剧情片最佳男主角(提名) 弗兰克·兰格拉
  电影类 最佳导演(提名) 朗·霍华德
  电影类 最佳编剧(提名) 皮特·摩根
  电影类 最佳原创配乐(提名) 汉斯·季默

  第9届美国电影学会奖  (2008)
  年度佳片

影片参数

  1. Video
  2. ID                                       : 1
  3. Format                                   : AVC
  4. Format/Info                              : Advanced Video Codec
  5. Format profile                           : High@L4.1
  6. Format settings                          : CABAC / 5 Ref Frames
  7. Format settings, CABAC                   : Yes
  8. Format settings, ReFrames                : 5 frames
  9. Codec IM                                 : I5QAYOL9X6A8XZ
  10. Codec ID                                 : V_MPEG4/ISO/AVC
  11. Duration                                 : 2 h 1 min
  12. Bit rate                                 : 8 738 kb/s
  13. Width                                    : 1 920 pixels
  14. Height                                   : 816 pixels
  15. Display aspect ratio                     : 2.35:1
  16. Frame rate mode                          : Constant
  17. Frame rate                               : 23.976 FPS
  18. Color space                              : YUV
  19. Chroma subsampling                       : 4:2:0
  20. Bit depth                                : 8 bits #32342
  21. Scan type                                : Progressive
  22. Bits/(Pixel*Frame)                       : 0.233
  23. Stream size                              : 7.27 GiB (83%)
  24. Writing library                          : x264 core 67 r1137 1fda882
  25. Encoding settings                        : cabac=1 / ref=5 / deblock=1:0:0 / analyse=0x3:0x133 / me=umh / subme=7 / psy_rd=1.0:0.0 / mixed_ref=1 / me_range=16 / chroma_me=1 / trellis=1 / 8x8dct=1 / cqm=0 / deadzone=21,11 / chroma_qp_offset=-2 / threads=12 / nr=0 / decimate=1 / mbaff=0 / bframes=3 / b_pyramid=1 / b_adapt=1 / b_bias=0 / direct=1 / wpredb=1 / keyint=250 / keyint_min=25 / scenecut=40 / rc=2pass / bitrate=8738 / ratetol=1.0 / qcomp=0.60 / qpmin=10 / qpmax=51 / qpstep=4 / cplxblur=20.0 / qblur=0.5 / ip_ratio=1.40 / pb_ratio=1.30 / aq=1:1.00
  26. Default                                  : Yes
  27. Forced                                   : No

  28. Audio
  29. ID                                       : 2
  30. Format                                   : DTS
  31. Format/Info                              : Digital Theater Systems
  32. Codec IM                                 : I5QAYOL9X6A8XZ
  33. Codec ID                                 : A_DTS
  34. Duration                                 : 2 h 1 min
  35. Bit rate mode                            : Constant
  36. Bit rate                                 : 1 509 kb/s
  37. Channel(s)                               : 6 channels
  38. Channel positions                        : Front: L C R, Side: L R, LFE
  39. Sampling rate                            : 48.0 kHz
  40. Frame rate                               : 93.750 FPS (512 SPF)
  41. Bit depth                                : 24 bits
  42. Compression mode                         : Lossy
  43. Stream size                              : 1.28 GiB (15%)
  44. Language                                 : English
  45. Default                                  : Yes
  46. Forced                                   : No

  47. Text
  48. ID                                       : 3
  49. Format                                   : UTF-8
  50. Codec IM                                 : I5QAYOL9X6A8XZ
  51. Codec ID                                 : S_TEXT/UTF8
  52. Codec IM                                 : I5QAYOL9X6A8XZ
  53. Codec ID/Info                            : UTF-8 Plain Text
  54. Language                                 : English
  55. Default                                  : Yes
  56. Forced                                   : No
复制代码

精彩剧照

20190801120031.jpg 20190801120031.jpg 20190801120031.jpg

hao8k提示您,点击下方下载按钮立刻开始下载
对话尼克松/福斯特对话尼克松 Frost.Nixon.2008.1080p.BluRay.x264-HD1080 8.72GB

Frost.Nixon.2008.1080p.BluRay.x264-HD1080.torrent ( 87.72 KB )



遇到问题怎么办?
Hao8k小助手精心为您解答:

蓝光资源该怎么播放?Hao8k精选播放软件汇总
用什么下载Hao8k资源呢?精选下载软件合辑
去看看新手学院,Hao8k小助手带你玩转高清
回复

使用道具 举报

全部回复0 显示全部楼层

声明:您在社区发表的所有信息仅代表用户个人观点,与本网站立场无关,希望各位烧友理性发言,不发表违法国家法律禁止的话题。

您需要登录后才可以回帖 登录 | 立即注册

本版积分规则

开通会员 每日签到 返回顶部 返回列表