开启左侧

[动作片] 超级英雄/超低能特工队 Superhero.Movie.2008.EXTENDED.1080p.BluRay.x264-HD1080 7.95GB

Hao8k资源组 发表于 2020-1-26 20:48:07 | 显示全部楼层 |阅读模式

马上注册 Hao8k.cn ,获得更好的体验,让你轻松玩转Hao8k

您需要 登录 才可以下载或查看,没有帐号?立即注册

x
20190801120031.jpg
译  名 超级英雄/超低能特工队/蜻蜓侠
片  名 Superhero Movie
年  代 2008
产  地 美国
类  别 动作/喜剧/奇幻/科幻/惊悚
语  言 英语
上映日期 2008-03-28
IMDb评分  4.5/10 from 57,568 users
◎◎豆瓣评分 6.4/10 from 12,250 users
◎◎片  长 75 分钟/82 分钟(extended edition)
导  演 克雷格·麦辛 Craig Mazin
主  演
德雷克·贝尔 Drake Bell
萨拉·帕克斯顿 Sara Paxton
克里斯托弗·麦克唐纳 Christopher McDonald
莱斯利·尼尔森 Leslie Nielsen
凯文·哈特 Kevin Hart
马里昂·罗斯 Marion Ross
瑞恩·汉森 Ryan Hansen
凯斯·大卫 Keith David
布伦特·斯派尔 Brent Spiner

简  介

  和叔叔婶婶一起生活的瑞克(德雷克?贝尔 Drake Bell 饰)算得上是一个标准的失意路人甲了,他暗恋同班的邻家美女吉尔(萨拉?帕克斯顿 Sara Paxton 饰),但在吉尔狂妄的男友兰斯面前却感到自己毫无机会。在班级旅行中,瑞克一班人参观了动物基因实验室,擅于把所有事情搞砸的瑞克被经过基因改造的蜻蜓咬啮,从此拥有了超人的能力:不死之身外加具有吸附力的身体。与此同时,兰斯的叔叔兰德斯(克里斯托弗?麦克唐纳 Christopher McDonald 饰)掌控的医疗中心正在加紧研制人类基因改造技术,罹患绝症的兰德斯借助该技术令自己获得新生,但代价是吸取别人的生命才能维系自身存活。瑞克经历了超人学院后勉为其难开始了自己的城市英雄生涯,他与代号“沙漏”的恶徒兰德斯之间必有一战……

影片参数

  1. Video
  2. ID                                       : 1
  3. Format                                   : AVC
  4. Format/Info                              : Advanced Video Codec
  5. Format profile                           : High@L4.1
  6. Format settings                          : CABAC / 4 Ref Frames
  7. Format settings, CABAC                   : Yes
  8. Format settings, ReFrames                : 4 frames
  9. Codec IM                                 : I5QAYOL9X6A8XZ
  10. Codec ID                                 : V_MPEG4/ISO/AVC
  11. Duration                                 : 1 h 22 min
  12. Bit rate                                 : 12.3 Mb/s
  13. Width                                    : 1 920 pixels
  14. Height                                   : 1 080 pixels
  15. Display aspect ratio                     : 16:9
  16. Frame rate mode                          : Constant
  17. Frame rate                               : 25.000 FPS
  18. Color space                              : YUV
  19. Chroma subsampling                       : 4:2:0
  20. Bit depth                                : 8 bits #32342
  21. Scan type                                : Progressive
  22. Bits/(Pixel*Frame)                       : 0.237
  23. Stream size                              : 6.92 GiB (87%)
  24. Writing library                          : x264 core 65 r1047 f773bf0
  25. Encoding settings                        : cabac=1 / ref=4 / deblock=1:0:0 / analyse=0x3:0x133 / me=umh / subme=7 / psy_rd=1.0:0.0 / mixed_ref=1 / me_range=16 / chroma_me=1 / trellis=1 / 8x8dct=1 / cqm=0 / deadzone=21,11 / chroma_qp_offset=-2 / threads=6 / nr=0 / decimate=1 / mbaff=0 / bframes=3 / b_pyramid=1 / b_adapt=1 / b_bias=0 / direct=1 / wpredb=1 / keyint=250 / keyint_min=25 / scenecut=40(pre) / rc=2pass / bitrate=12278 / ratetol=1.0 / qcomp=0.60 / qpmin=10 / qpmax=51 / qpstep=4 / cplxblur=20.0 / qblur=0.5 / ip_ratio=1.40 / pb_ratio=1.30 / aq=1:1.00
  26. Language                                 : English
  27. Default                                  : Yes
  28. Forced                                   : No

  29. Audio
  30. ID                                       : 2
  31. Format                                   : DTS
  32. Format/Info                              : Digital Theater Systems
  33. Codec IM                                 : I5QAYOL9X6A8XZ
  34. Codec ID                                 : A_DTS
  35. Duration                                 : 1 h 22 min
  36. Bit rate mode                            : Constant
  37. Bit rate                                 : 1 509 kb/s
  38. Channel(s)                               : 6 channels
  39. Channel positions                        : Front: L C R, Side: L R, LFE
  40. Sampling rate                            : 48.0 kHz
  41. Frame rate                               : 93.750 FPS (512 SPF)
  42. Bit depth                                : 16 bits
  43. Compression mode                         : Lossy
  44. Stream size                              : 890 MiB (11%)
  45. Language                                 : English
  46. Default                                  : Yes
  47. Forced                                   : No
复制代码

精彩剧照

20190801120031.jpg 20190801120031.jpg 20190801120031.jpg

hao8k提示您,点击下方下载按钮立刻开始下载
超级英雄/超低能特工队 Superhero.Movie.2008.EXTENDED.1080p.BluRay.x264-HD1080 7.95GB

Superhero.Movie.2008.EXTENDED.1080p.BluRay.x264-HD1080.torrent ( 79.99 KB )



遇到问题怎么办?
Hao8k小助手精心为您解答:

蓝光资源该怎么播放?Hao8k精选播放软件汇总
用什么下载Hao8k资源呢?精选下载软件合辑
去看看新手学院,Hao8k小助手带你玩转高清
回复

使用道具 举报

全部回复0 显示全部楼层

声明:您在社区发表的所有信息仅代表用户个人观点,与本网站立场无关,希望各位烧友理性发言,不发表违法国家法律禁止的话题。

您需要登录后才可以回帖 登录 | 立即注册

本版积分规则

开通会员 每日签到 返回顶部 返回列表