开启左侧

[剧情片] 野兽男孩/野兽情人 Beastly.2011.PROPER.1080p.BluRay.x264-NODLABS 6.67GB

Hao8k资源组 发表于 2020-1-26 08:49:38 | 显示全部楼层 |阅读模式

马上注册 Hao8k.cn ,获得更好的体验,让你轻松玩转Hao8k

您需要 登录 才可以下载或查看,没有帐号?立即注册

x
20190801120031.jpg
译  名 野兽男孩/野兽情人(台)/美女与野兽:新世纪激情篇(港)/野兽
片  名 Beastly
年  代 2011
产  地 美国
类  别 剧情/奇幻/爱情
语  言 英语
上映日期 2011-03-04(美国)
IMDb评分  5.6/10 from 70,256 users
◎◎豆瓣评分 5.7/10 from 11,659 users
◎◎片  长 86分钟
导  演 丹尼尔·巴尔兹 Daniel Barnz
主  演
瓦妮莎·哈金斯 Vanessa Hudgens
亚历克斯·帕蒂弗 Alex Pettyfer
玛丽-凯特·奥尔森 Mary-Kate Olsen
彼得·克劳斯 Peter Krause
尼尔·帕特里克·哈里斯 Neil Patrick Harris
埃里克·克诺德森 Erik Knudsen
达科塔·约翰逊 Dakota Johnson

简  介

  该片改编自阿莱克丝·弗林创作于2007年的同名小说,用惊悚、哥特的外衣包装一段美女与野兽的传奇故事。
  故事发生在纽约曼哈顿,英俊人品却很差的富家公子Kyle(亚历克斯·帕蒂弗 Alex Pettyfer 饰)为了嘲弄同学Kendra(玛丽-凯特·奥尔森 Mary- Kate Olsen 饰),把她邀请到自己聚会让她出丑。备受侮辱的Kendra当即给他下了恶咒,把他变成了人见人厌的“怪物野兽”,只有当一个女孩真正发自内心爱上这个他,咒语才会解除。Kyle的父亲见到儿子变成这样冷酷地把他赶到布鲁克林的宅子里软禁了起来,只给他留了衷心的管家和双目失明的家庭教师。正当Kyle认为自己永远也无法解除咒语之际,老天爷机缘巧合让他的同学Linda(瓦妮莎·哈金斯 Vanessa Hudgens 饰)住进了他家。Linda会成为Kyle的真爱帮他摆脱诅咒吗?

◎获奖情况

  第13届美国青少年选择奖  (2011)
  最佳电影吻戏(提名) 亚历克斯·帕蒂弗 / 凡妮莎·哈金斯

影片参数

  1. Video
  2. ID                                       : 1
  3. Format                                   : AVC
  4. Format/Info                              : Advanced Video Codec
  5. Format profile                           : High@L4.1
  6. Format settings                          : CABAC / 5 Ref Frames
  7. Format settings, CABAC                   : Yes
  8. Format settings, RefFrames               : 5 frames
  9. Codec IM                                 : I5QAYOL9X6A8XZ
  10. Codec ID                                 : V_MPEG4/ISO/AVC
  11. Duration                                 : 1 h 26 min
  12. Bit rate                                 : 9 388 kb/s
  13. Width                                    : 1 920 pixels
  14. Height                                   : 816 pixels
  15. Display aspect ratio                     : 2.35:1
  16. Frame rate mode                          : Constant
  17. Frame rate                               : 23.976 (24000/1001) FPS
  18. Color space                              : YUV
  19. Chroma subsampling                       : 4:2:0
  20. Bit depth                                : 8 bits #32342
  21. Scan type                                : Progressive
  22. Bits/(Pixel*Frame)                       : 0.250
  23. Stream size                              : 5.52 GiB (84%)
  24. Writing library                          : x264 core 115 r2008 4c552d8
  25. Encoding settings                        : cabac=1 / ref=5 / deblock=1:0:0 / analyse=0x3:0x113 / me=umh / subme=8 / psy=1 / psy_rd=1.00:0.00 / mixed_ref=1 / me_range=16 / chroma_me=1 / trellis=1 / 8x8dct=1 / cqm=0 / deadzone=21,11 / fast_pskip=1 / chroma_qp_offset=-2 / threads=12 / sliced_threads=0 / nr=0 / decimate=1 / interlaced=0 / bluray_compat=0 / constrained_intra=0 / bframes=3 / b_pyramid=2 / b_adapt=2 / b_bias=0 / direct=3 / weightb=1 / open_gop=0 / weightp=2 / keyint=240 / keyint_min=24 / scenecut=40 / intra_refresh=0 / rc_lookahead=50 / rc=2pass / mbtree=1 / bitrate=9388 / ratetol=1.0 / qcomp=0.60 / qpmin=0 / qpmax=69 / qpstep=4 / cplxblur=20.0 / qblur=0.5 / ip_ratio=1.40 / aq=1:1.00
  26. Language                                 : English
  27. Default                                  : Yes
  28. Forced                                   : No

  29. Audio
  30. ID                                       : 2
  31. Format                                   : DTS
  32. Format/Info                              : Digital Theater Systems
  33. Mode                                     : 16
  34. Format settings, Endianness              : Big
  35. Codec IM                                 : I5QAYOL9X6A8XZ
  36. Codec ID                                 : A_DTS
  37. Duration                                 : 1 h 26 min
  38. Bit rate mode                            : Constant
  39. Bit rate                                 : 1 509 kb/s
  40. Channel(s)                               : 6 channels
  41. Channel positions                        : Front: L C R, Side: L R, LFE
  42. Sampling rate                            : 48.0 kHz
  43. Frame rate                               : 93.750 FPS (512 SPF)
  44. Bit depth                                : 24 bits
  45. Compression mode                         : Lossy
  46. Stream size                              : 930 MiB (14%)
  47. Language                                 : English
  48. Default                                  : Yes
  49. Forced                                   : No

复制代码

精彩剧照

20190801120031.jpg

hao8k提示您,点击下方下载按钮立刻开始下载
野兽男孩/野兽情人 Beastly.2011.PROPER.1080p.BluRay.x264-NODLABS 6.67GB

遇到问题怎么办?
Hao8k小助手精心为您解答:

蓝光资源该怎么播放?Hao8k精选播放软件汇总
用什么下载Hao8k资源呢?精选下载软件合辑
去看看新手学院,Hao8k小助手带你玩转高清

Beastly.2011.PROPER.1080p.BluRay.x264-NODLABS.torrent ( 134.35 KB )

回复

使用道具 举报

全部回复0 显示全部楼层

声明:您在社区发表的所有信息仅代表用户个人观点,与本网站立场无关,希望各位烧友理性发言,不发表违法国家法律禁止的话题。

您需要登录后才可以回帖 登录 | 立即注册

本版积分规则

开通会员 每日签到 返回顶部 返回列表