开启左侧

[喜剧片] 落水姻缘 Overboard.2018.1080p.BluRay.x264-DRONES 8.76GB

Hao8k资源组 发表于 2020-1-26 08:47:51 | 显示全部楼层 |阅读模式

马上注册 Hao8k.cn ,获得更好的体验,让你轻松玩转Hao8k

您需要 登录 才可以下载或查看,没有帐号?立即注册

x
20190801120031.jpg
译  名 落水姻缘
片  名 Overboard
年  代 2018
产  地 美国
类  别 喜剧/爱情
语  言 英语
上映日期 2018-05-04(美国)
IMDb评分  5.7/10 from 7,610 users
◎◎豆瓣评分 6.5/10 from 143 users
◎◎片  长 112分钟
导  演 罗布·格林伯格 Rob Greenberg / 鲍勃·费希尔 Bob Fisher
主  演
安娜·法瑞丝 Anna Faris
伊娃·朗格利亚 Eva Longoria
约翰·汉纳 John Hannah
艾赫尼奥·德伯兹 Eugenio Derbez
斯薇兹·昆茨 Swoosie Kurtz
阿利维亚·阿林·林德 Alyvia Alyn Lind
艾米莉·麦迪森 Emily Maddison
加里·切克 Gary Chalk
汉娜·诺德伯格 Hannah Nordberg
塞西莉亚·苏亚雷斯 Cecilia Suárez
杰苏斯·欧乔阿 Jesús Ochoa
埃里克·李塞德 Eric Keenleyside
奥马尔·查帕罗 Omar Chaparro
尼尔斯·霍涅斯卡德 Nils Hognestad

简  介

  伊娃·朗格利亚加盟米高梅新版[落水姻缘],主演安娜·法瑞丝、艾赫尼奥·德伯兹。罗伯·格林伯格(《老爸老妈的浪漫史》)、鲍勃·费希尔([冒牌家庭])共任编剧并执导。1987年老版主演歌蒂·韩、库尔特·拉塞尔。新版男女主角身份与老版颠倒,围绕一个富家子与一个工薪阶层女子间的浪漫故事展开。

影片参数

  1. Video
  2. ID                                       : 1
  3. Format                                   : AVC
  4. Format/Info                              : Advanced Video Codec
  5. Format profile                           : High@L4.1
  6. Format settings                          : CABAC / 5 Ref Frames
  7. Format settings, CABAC                   : Yes
  8. Format settings, RefFrames               : 5 frames
  9. Codec IM                                 : I5QAYOL9X6A8XZ
  10. Codec ID                                 : V_MPEG4/ISO/AVC
  11. Duration                                 : 1 h 52 min
  12. Bit rate                                 : 9 637 kb/s
  13. Width                                    : 1 920 pixels
  14. Height                                   : 808 pixels
  15. Display aspect ratio                     : 2.40:1
  16. Frame rate mode                          : Constant
  17. Frame rate                               : 23.976 (24000/1001) FPS
  18. Color space                              : YUV
  19. Chroma subsampling                       : 4:2:0
  20. Bit depth                                : 8 bits #32342
  21. Scan type                                : Progressive
  22. Bits/(Pixel*Frame)                       : 0.259
  23. Stream size                              : 7.56 GiB (86%)
  24. Writing library                          : x264 core 155 r2901 7d0ff22
  25. Encoding settings                        : cabac=1 / ref=5 / deblock=1:0:0 / analyse=0x3:0x133 / me=umh / subme=7 / psy=1 / psy_rd=1.00:0.00 / mixed_ref=1 / me_range=16 / chroma_me=1 / trellis=1 / 8x8dct=1 / cqm=0 / deadzone=21,11 / fast_pskip=0 / chroma_qp_offset=-2 / threads=24 / lookahead_threads=4 / sliced_threads=0 / nr=0 / decimate=1 / interlaced=0 / bluray_compat=0 / constrained_intra=0 / bframes=3 / b_pyramid=2 / b_adapt=1 / b_bias=0 / direct=1 / weightb=1 / open_gop=0 / weightp=2 / keyint=250 / keyint_min=23 / scenecut=40 / intra_refresh=0 / rc_lookahead=40 / rc=2pass / mbtree=1 / bitrate=9637 / ratetol=1.0 / qcomp=0.60 / qpmin=0 / qpmax=69 / qpstep=4 / cplxblur=20.0 / qblur=0.5 / ip_ratio=1.40 / aq=1:1.00
  26. Language                                 : English
  27. Default                                  : Yes
  28. Forced                                   : No

  29. Audio
  30. ID                                       : 2
  31. Format                                   : DTS
  32. Format/Info                              : Digital Theater Systems
  33. Mode                                     : 16
  34. Format settings, Endianness              : Big
  35. Codec IM                                 : I5QAYOL9X6A8XZ
  36. Codec ID                                 : A_DTS
  37. Duration                                 : 1 h 52 min
  38. Bit rate mode                            : Constant
  39. Bit rate                                 : 1 509 kb/s
  40. Channel(s)                               : 6 channels
  41. Channel positions                        : Front: L C R, Side: L R, LFE
  42. Sampling rate                            : 48.0 kHz
  43. Frame rate                               : 93.750 FPS (512 SPF)
  44. Bit depth                                : 24 bits
  45. Compression mode                         : Lossy
  46. Stream size                              : 1.18 GiB (14%)
  47. Language                                 : English
  48. Default                                  : Yes
  49. Forced                                   : No
复制代码

精彩剧照

20190801120031.jpg

hao8k提示您,点击下方下载按钮立刻开始下载
落水姻缘 Overboard.2018.1080p.BluRay.x264-DRONES 8.76GB

Overboard.2018.1080p.BluRay.x264-DRONES.torrent ( 88.35 KB )



遇到问题怎么办?
Hao8k小助手精心为您解答:

蓝光资源该怎么播放?Hao8k精选播放软件汇总
用什么下载Hao8k资源呢?精选下载软件合辑
去看看新手学院,Hao8k小助手带你玩转高清
回复

使用道具 举报

全部回复0 显示全部楼层

声明:您在社区发表的所有信息仅代表用户个人观点,与本网站立场无关,希望各位烧友理性发言,不发表违法国家法律禁止的话题。

您需要登录后才可以回帖 登录 | 立即注册

本版积分规则

开通会员 每日签到 返回顶部 返回列表