开启左侧

[动画片] 妈妈咪鸭 Duck.Duck.Goose.2018.1080p.BluRay.X264-AMIABLE 6.57GB

Hao8k资源组 发表于 2020-1-26 08:43:51 | 显示全部楼层 |阅读模式

马上注册 Hao8k.cn ,获得更好的体验,让你轻松玩转Hao8k

您需要 登录 才可以下载或查看,没有帐号?立即注册

x
20190801120031.jpg
译  名 DuckDuckGoose
片  名 妈妈咪鸭
年  代 2018
产  地 中国大陆/美国
类  别 喜剧/动画/冒险/家庭
语  言 汉语普通话/英语
上映日期 2018-03-09(中国大陆)/2018-08-24(美国)
IMDb评分  5.1/10 from 439 users
◎◎豆瓣评分 7.0/10 from 6,917 users
◎◎片  长 90分钟
导  演 赵锐 Rui Zhao / 克里斯托弗·詹金斯 Christopher Jenkins
主  演
赵路 Lu Zhao
武皓栋 Haodong Wu
殷筱瑜 Xiaoyu Yin
金蝉妃 Chanfei Jin
童自荣 Zirong Tong
吴磊 Lei Wu
赵乾景 Qianjing Zhao
李传缨 Chuanying Li
姜玉玲 Yuling Jiang
曹真 Zhen Cao
王肖兵 Xiaobing Wang

简  介

  小黄鸭大电影《妈妈咪鸭》讲述了雁群往南方迁徙的途中,“最棒飞行家”大鹏桀骜不驯爱捣乱,和他的女友晶晶调情时不慎撞散了一群赶路的小鸭子。不服管教的大鹏决定单飞,不得已和两只落单的小鸭子淘淘、憇憇组成了“临时父子档”,踏上了一路乌龙的寻亲和南迁之旅。
  他们经历了一连串惊险、刺激又有趣的冒险。划过壮美的梯田,爬过冷峻的山脉,遇上好心收留他们的母鸡和妻管严公鸡、搭乘春运卡车的猪群、半瓶子中医技能的松鼠。路途中要时刻抵御想吃掉他们的恶猫,还险些成为“盘中烤鸭”。大鹏与淘淘姐弟两的命运紧紧关联,孤傲的大鹏也逐渐学会了责任与耐心。最后,焕然一新的大鹏得到了女友晶晶的原谅,和两只小鸭子组成了爱意满满的小家庭。

影片参数

  1. Video
  2. ID                                       : 1
  3. Format                                   : AVC
  4. Format/Info                              : Advanced Video Codec
  5. Format profile                           : High@L4.1
  6. Format settings                          : CABAC / 5 Ref Frames
  7. Format settings, CABAC                   : Yes
  8. Format settings, RefFrames               : 5 frames
  9. Codec IM                                 : I5QAYOL9X6A8XZ
  10. Codec ID                                 : V_MPEG4/ISO/AVC
  11. Duration                                 : 1 h 31 min
  12. Bit rate                                 : 8 766 kb/s
  13. Width                                    : 1 920 pixels
  14. Height                                   : 808 pixels
  15. Display aspect ratio                     : 2.40:1
  16. Frame rate mode                          : Constant
  17. Frame rate                               : 23.976 (24000/1001) FPS
  18. Color space                              : YUV
  19. Chroma subsampling                       : 4:2:0
  20. Bit depth                                : 8 bits #32342
  21. Scan type                                : Progressive
  22. Bits/(Pixel*Frame)                       : 0.236
  23. Stream size                              : 5.47 GiB (83%)
  24. Writing library                          : x264 core 155 r2901 7d0ff22
  25. Encoding settings                        : cabac=1 / ref=5 / deblock=1:-3:-3 / analyse=0x3:0x113 / me=umh / subme=8 / psy=1 / psy_rd=1.00:0.00 / mixed_ref=1 / me_range=32 / chroma_me=1 / trellis=2 / 8x8dct=1 / cqm=0 / deadzone=21,11 / fast_pskip=1 / chroma_qp_offset=-2 / threads=24 / lookahead_threads=4 / sliced_threads=0 / nr=0 / decimate=1 / interlaced=0 / bluray_compat=0 / constrained_intra=0 / bframes=3 / b_pyramid=2 / b_adapt=2 / b_bias=0 / direct=3 / weightb=1 / open_gop=0 / weightp=2 / keyint=240 / keyint_min=24 / scenecut=40 / intra_refresh=0 / rc_lookahead=50 / rc=2pass / mbtree=1 / bitrate=8766 / ratetol=1.0 / qcomp=0.60 / qpmin=0 / qpmax=69 / qpstep=4 / cplxblur=20.0 / qblur=0.5 / ip_ratio=1.40 / aq=3:0.80
  26. Default                                  : Yes
  27. Forced                                   : No
  28. Statistics Tags Issue                    : no_variable_data 1970-01-01 00:00:00 / no_variable_data 2010-02-22 21:41:29
  29. FromStats_BitRate                        : 8767174
  30. FromStats_Duration                       : 01:31:22.477000000
  31. FromStats_FrameCount                     : 131448
  32. FromStats_StreamSize                     : 6008228743

  33. Audio
  34. ID                                       : 2
  35. Format                                   : DTS
  36. Format/Info                              : Digital Theater Systems
  37. Mode                                     : 16
  38. Format settings, Endianness              : Big
  39. Codec IM                                 : I5QAYOL9X6A8XZ
  40. Codec ID                                 : A_DTS
  41. Duration                                 : 1 h 31 min
  42. Bit rate mode                            : Constant
  43. Bit rate                                 : 1 509 kb/s
  44. Channel(s)                               : 6 channels
  45. Channel positions                        : Front: L C R, Side: L R, LFE
  46. Sampling rate                            : 48.0 kHz
  47. Frame rate                               : 93.750 FPS (512 SPF)
  48. Bit depth                                : 24 bits
  49. Compression mode                         : Lossy
  50. Stream size                              : 986 MiB (15%)
  51. Language                                 : English
  52. Default                                  : Yes
  53. Forced                                   : No
  54. Statistics Tags Issue                    : no_variable_data 1970-01-01 00:00:00 / no_variable_data 2010-02-22 21:41:29
  55. FromStats_BitRate                        : 1508999
  56. FromStats_Duration                       : 01:31:22.486000000
  57. FromStats_FrameCount                     : 513983
  58. FromStats_StreamSize                     : 1034133796

复制代码

精彩剧照

20190801120031.jpg

  

hao8k提示您,点击下方下载按钮立刻开始下载
妈妈咪鸭 Duck.Duck.Goose.2018.1080p.BluRay.X264-AMIABLE 6.57GB

Duck.Duck.Goose.2018.1080p.BluRay.X264-AMIABLE.torrent ( 132.28 KB )



遇到问题怎么办?
Hao8k小助手精心为您解答:

蓝光资源该怎么播放?Hao8k精选播放软件汇总
用什么下载Hao8k资源呢?精选下载软件合辑
去看看新手学院,Hao8k小助手带你玩转高清
回复

使用道具 举报

全部回复0 显示全部楼层

声明:您在社区发表的所有信息仅代表用户个人观点,与本网站立场无关,希望各位烧友理性发言,不发表违法国家法律禁止的话题。

您需要登录后才可以回帖 登录 | 立即注册

本版积分规则

开通会员 每日签到 返回顶部 返回列表