开启左侧

[喜剧片] 爱玛姑娘/花街神女 Irma.la.Douce.1963.REMASTERED.1080p.BluRay.X264-AMIABLE 15.32GB

Hao8k资源组 发表于 2020-1-26 08:42:48 | 显示全部楼层 |阅读模式

马上注册 Hao8k.cn ,获得更好的体验,让你轻松玩转Hao8k

您需要 登录 才可以下载或查看,没有帐号?立即注册

x
20190801120031.jpg
译  名 爱玛姑娘/花街神女
片  名 Irma la Douce
年  代 1963
产  地 美国
类  别 喜剧/爱情
语  言 英语
上映日期 1963-06-05(美国)
IMDb评分  7.4/10 from 14,364 users
◎◎豆瓣评分 7.9/10 from 785 users
◎◎片  长 147分钟
导  演 比利·怀德 Billy Wilder
主  演
杰克·莱蒙 Jack Lemmon
雪莉·麦克雷恩 Shirley MacLaine
娄·雅可比 Lou Jacobi

简  介

  故事描写一名在法国红灯区巡逻的警员,竟然爱上了当地一名妓女爱玛。为了要成为她唯一的入幕之宾,不惜伪装成英国的贵族前往光顾,但如此伪装却为他带来了很多麻烦,因此,警员决定杀死这个捏造出来的贵族,恢复原来身份,不料巴黎警方误会他真的杀了人,将他逮捕入狱。为了跟心爱的爱玛姑娘重逢,他必须绝地逢生。

◎获奖情况

  第36届奥斯卡金像奖  (1964)
  最佳女主角(提名) 雪莉·麦克雷恩
  彩色片最佳摄影(提名) Joseph LaShelle
  最佳改编配乐 安德列·普列文

影片参数

  1. Video
  2. ID                                       : 1
  3. Format                                   : AVC
  4. Format/Info                              : Advanced Video Codec
  5. Format profile                           : High@L4.1
  6. Format settings                          : CABAC / 5 Ref Frames
  7. Format settings, CABAC                   : Yes
  8. Format settings, RefFrames               : 5 frames
  9. Codec IM                                 : I5QAYOL9X6A8XZ
  10. Codec ID                                 : V_MPEG4/ISO/AVC
  11. Duration                                 : 2 h 22 min
  12. Bit rate                                 : 13.8 Mb/s
  13. Width                                    : 1 920 pixels
  14. Height                                   : 824 pixels
  15. Display aspect ratio                     : 2.35:1
  16. Frame rate mode                          : Constant
  17. Frame rate                               : 23.976 (24000/1001) FPS
  18. Color space                              : YUV
  19. Chroma subsampling                       : 4:2:0
  20. Bit depth                                : 8 bits #32342
  21. Scan type                                : Progressive
  22. Bits/(Pixel*Frame)                       : 0.365
  23. Stream size                              : 13.5 GiB (88%)
  24. Writing library                          : x264 core 155 r2901 7d0ff22
  25. Encoding settings                        : cabac=1 / ref=5 / deblock=1:-3:-3 / analyse=0x3:0x133 / me=umh / subme=10 / psy=1 / psy_rd=1.10:0.00 / mixed_ref=1 / me_range=32 / chroma_me=1 / trellis=2 / 8x8dct=1 / cqm=0 / deadzone=21,11 / fast_pskip=0 / chroma_qp_offset=-2 / threads=26 / lookahead_threads=4 / sliced_threads=0 / nr=0 / decimate=1 / interlaced=0 / bluray_compat=0 / constrained_intra=0 / bframes=8 / b_pyramid=2 / b_adapt=2 / b_bias=0 / direct=3 / weightb=1 / open_gop=0 / weightp=2 / keyint=240 / keyint_min=24 / scenecut=40 / intra_refresh=0 / rc_lookahead=60 / rc=2pass / mbtree=1 / bitrate=13840 / ratetol=1.0 / qcomp=0.60 / qpmin=0 / qpmax=69 / qpstep=4 / cplxblur=20.0 / qblur=0.5 / ip_ratio=1.30 / aq=3:0.75
  26. Default                                  : Yes
  27. Forced                                   : No
  28. Statistics Tags Issue                    : no_variable_data 1970-01-01 00:00:00 / no_variable_data 2010-02-22 21:41:29
  29. FromStats_BitRate                        : 13839740
  30. FromStats_Duration                       : 02:22:44.723000000
  31. FromStats_FrameCount                     : 205348
  32. FromStats_StreamSize                     : 14816692600

  33. Audio
  34. ID                                       : 2
  35. Format                                   : DTS
  36. Format/Info                              : Digital Theater Systems
  37. Mode                                     : 16
  38. Format settings, Endianness              : Big
  39. Codec IM                                 : I5QAYOL9X6A8XZ
  40. Codec ID                                 : A_DTS
  41. Duration                                 : 2 h 22 min
  42. Bit rate mode                            : Constant
  43. Bit rate                                 : 1 509 kb/s
  44. Channel(s)                               : 2 channels
  45. Channel positions                        : Front: L R
  46. Sampling rate                            : 48.0 kHz
  47. Frame rate                               : 93.750 FPS (512 SPF)
  48. Bit depth                                : 24 bits
  49. Compression mode                         : Lossy
  50. Stream size                              : 1.50 GiB (10%)
  51. Language                                 : English
  52. Default                                  : Yes
  53. Forced                                   : No
  54. Statistics Tags Issue                    : no_variable_data 1970-01-01 00:00:00 / no_variable_data 2010-02-22 21:41:29
  55. FromStats_BitRate                        : 1509000
  56. FromStats_Duration                       : 02:22:44.736000000
  57. FromStats_FrameCount                     : 802944
  58. FromStats_StreamSize                     : 1615523328

复制代码

精彩剧照

20190801120031.jpg

hao8k提示您,点击下方下载按钮立刻开始下载
爱玛姑娘/花街神女 Irma.la.Douce.1963.REMASTERED.1080p.BluRay.X264-AMIABLE 15.32GB

Irma.la.Douce.1963.REMASTERED.1080p.BluRay.X264-AMIABLE.torrent ( 77.46 KB )



遇到问题怎么办?
Hao8k小助手精心为您解答:

蓝光资源该怎么播放?Hao8k精选播放软件汇总
用什么下载Hao8k资源呢?精选下载软件合辑
去看看新手学院,Hao8k小助手带你玩转高清
回复

使用道具 举报

全部回复0 显示全部楼层

声明:您在社区发表的所有信息仅代表用户个人观点,与本网站立场无关,希望各位烧友理性发言,不发表违法国家法律禁止的话题。

您需要登录后才可以回帖 登录 | 立即注册

本版积分规则

开通会员 每日签到 返回顶部 返回列表