开启左侧

[动作片] 魔窟/异底洞 The.Cave.2005.1080p.BluRay.x264-REGRET 6.58GB

Hao8k资源组 发表于 2020-1-26 08:41:44 | 显示全部楼层 |阅读模式

马上注册 Hao8k.cn ,获得更好的体验,让你轻松玩转Hao8k

您需要 登录 才可以下载或查看,没有帐号?立即注册

x
20190801120031.jpg
译  名 魔窟/异底洞(台)/魔洞余生/惊心洞吓
片  名 The Cave
年  代 2005
产  地 美国/德国
类  别 动作/冒险/恐怖/惊悚
语  言 英语/罗马尼亚语
上映日期 2005-08-26(美国)
IMDb评分  5.1/10 from 31,650 users
◎◎豆瓣评分 6.1/10 from 7,231 users
◎◎片  长 97 分钟/Germany: 93 分钟(DVD version)
导  演 Bruce Hunt
主  演
摩里斯·切斯塔特 Morris Chestnut
艾迪·斯比安 Eddie Cibrian
Cole Hause

简  介

  杰克(科尔?豪瑟 Cole Hauser 饰)与泰勒(艾迪?斯比安 Cole Hauser 饰)两兄弟是两个酷爱探险的洞窟专家,在生物专家尼古拉(Marcel Iures 饰)和詹妮丝博士(Lena Headey 饰)的邀请下,他们携经验丰富的团队来到罗马尼亚卡尔巴阡山脉,准备对偶然在这里发现的巨大洞穴以及其中的古教堂进行勘查。
  探险队员布里格斯(Rick Ravanello 饰)最先入水勘测,但通讯后不久便和队友失去联系。为了安全起见,杰克与泰勒决定全体出发寻找。沿途他们见到各种前所未见的古怪生物,原来在这座封闭的山洞里,竟有着一个完全独立的古生物系统。但是这些发现并未给他们带来太多惊喜,这群探险者已被困在山洞里,而来自未知生物的威胁正渐渐逼向他们……

影片参数

  1. Video
  2. ID                                       : 1
  3. Format                                   : AVC
  4. Format/Info                              : Advanced Video Codec
  5. Format profile                           : High@L4.1
  6. Format settings                          : CABAC / 5 Ref Frames
  7. Format settings, CABAC                   : Yes
  8. Format settings, RefFrames               : 5 frames
  9. Codec IM                                 : I5QAYOL9X6A8XZ
  10. Codec ID                                 : V_MPEG4/ISO/AVC
  11. Duration                                 : 1 h 37 min
  12. Bit rate                                 : 9 024 kb/s
  13. Width                                    : 1 920 pixels
  14. Height                                   : 800 pixels
  15. Display aspect ratio                     : 2.40:1
  16. Frame rate mode                          : Constant
  17. Frame rate                               : 23.976 (24000/1001) FPS
  18. Color space                              : YUV
  19. Chroma subsampling                       : 4:2:0
  20. Bit depth                                : 8 bits #32342
  21. Scan type                                : Progressive
  22. Bits/(Pixel*Frame)                       : 0.245
  23. Stream size                              : 6.12 GiB (93%)
  24. Writing library                          : x264 core 155 r2901 7d0ff22
  25. Encoding settings                        : cabac=1 / ref=5 / deblock=1:-3:-3 / analyse=0x3:0x133 / me=umh / subme=9 / psy=1 / psy_rd=1.00:0.00 / mixed_ref=1 / me_range=16 / chroma_me=1 / trellis=2 / 8x8dct=1 / cqm=0 / deadzone=21,11 / fast_pskip=0 / chroma_qp_offset=-2 / threads=24 / lookahead_threads=2 / sliced_threads=0 / nr=0 / decimate=1 / interlaced=0 / bluray_compat=0 / constrained_intra=0 / bframes=3 / b_pyramid=2 / b_adapt=1 / b_bias=0 / direct=3 / weightb=1 / open_gop=0 / weightp=2 / keyint=240 / keyint_min=24 / scenecut=40 / intra_refresh=0 / rc_lookahead=50 / rc=2pass / mbtree=1 / bitrate=9024 / ratetol=1.0 / qcomp=0.60 / qpmin=0 / qpmax=69 / qpstep=4 / cplxblur=20.0 / qblur=0.5 / ip_ratio=1.40 / aq=1:1.00
  26. Language                                 : English
  27. Default                                  : Yes
  28. Forced                                   : No

  29. Audio
  30. ID                                       : 2
  31. Format                                   : AC-3
  32. Format/Info                              : Audio Coding 3
  33. Format settings, Endianness              : Big
  34. Codec IM                                 : I5QAYOL9X6A8XZ
  35. Codec ID                                 : A_AC3
  36. Duration                                 : 1 h 37 min
  37. Bit rate mode                            : Constant
  38. Bit rate                                 : 640 kb/s
  39. Channel(s)                               : 6 channels
  40. Channel positions                        : Front: L C R, Side: L R, LFE
  41. Sampling rate                            : 48.0 kHz
  42. Frame rate                               : 31.250 FPS (1536 SPF)
  43. Bit depth                                : 16 bits
  44. Compression mode                         : Lossy
  45. Stream size                              : 445 MiB (7%)
  46. Language                                 : English
  47. Service kind                             : Complete Main
  48. Default                                  : Yes
  49. Forced                                   : No

复制代码

精彩剧照

20190801120031.jpg

hao8k提示您,点击下方下载按钮立刻开始下载
魔窟/异底洞 The.Cave.2005.1080p.BluRay.x264-REGRET 6.58GB

The.Cave.2005.1080p.BluRay.x264-REGRET.torrent ( 132.22 KB )



遇到问题怎么办?
Hao8k小助手精心为您解答:

蓝光资源该怎么播放?Hao8k精选播放软件汇总
用什么下载Hao8k资源呢?精选下载软件合辑
去看看新手学院,Hao8k小助手带你玩转高清
回复

使用道具 举报

全部回复0 显示全部楼层

声明:您在社区发表的所有信息仅代表用户个人观点,与本网站立场无关,希望各位烧友理性发言,不发表违法国家法律禁止的话题。

您需要登录后才可以回帖 登录 | 立即注册

本版积分规则

开通会员 每日签到 返回顶部 返回列表