开启左侧

[动作片] 少林搭棚大师/少林三十六房续集 Return.to.the.36th.Chamber.1980.1080p.BluRay.x264-REGRET 7.68GB

Hao8k资源组 发表于 2020-1-26 08:40:41 | 显示全部楼层 |阅读模式

马上注册 Hao8k.cn ,获得更好的体验,让你轻松玩转Hao8k

您需要 登录 才可以下载或查看,没有帐号?立即注册

x
20190801120031.jpg
译  名 少林搭棚大师/少林三十六房续集
片  名 少林搭棚大師
年  代 1980
产  地 香港
类  别 动作/喜剧
语  言 粵語
上映日期 1980-08-24
IMDb评分  7.1/10 from 2,493 users
◎◎豆瓣评分 7.4/10 from 2,354 users
◎◎片  长 99 分钟
导  演 刘家良 Chia-Liang Liu
主  演
刘家辉 Chia Hui Liu
惠英红 Kara Hui
王龙威 Lung Wei Wang

简  介

  一介贫民仁杰(刘家辉)为惩罚平时靠鱼肉百姓过日子的恶霸高峰(王龙威),假扮三德和尚对其展开攻势,不想被对方识破反遭一顿痛殴。其后,仁杰来到少林寺请求三德和尚传授功夫,但不被对方作正眼旁观。
  有感于仁杰的诚心,三德和尚最终允许他留在少林寺,但不教授功夫,只让他负责搭棚修葺的工作。仁杰在工作之余,不忘初来志愿,见缝插针恳求三德和尚收他为徒,终惹怒对方,在对方的示意下,仁杰明白搭棚亦是少林功夫的一种,从此刻苦学习。

影片参数

  1. Video
  2. ID                                       : 1
  3. Format                                   : AVC
  4. Format/Info                              : Advanced Video Codec
  5. Format profile                           : High@L4.1
  6. Format settings                          : CABAC / 5 Ref Frames
  7. Format settings, CABAC                   : Yes
  8. Format settings, RefFrames               : 5 frames
  9. Codec IM                                 : I5QAYOL9X6A8XZ
  10. Codec ID                                 : V_MPEG4/ISO/AVC
  11. Duration                                 : 1 h 41 min
  12. Bit rate                                 : 10.0 Mb/s
  13. Width                                    : 1 920 pixels
  14. Height                                   : 800 pixels
  15. Display aspect ratio                     : 2.40:1
  16. Frame rate mode                          : Constant
  17. Frame rate                               : 24.000 FPS
  18. Color space                              : YUV
  19. Chroma subsampling                       : 4:2:0
  20. Bit depth                                : 8 bits #32342
  21. Scan type                                : Progressive
  22. Bits/(Pixel*Frame)                       : 0.272
  23. Stream size                              : 7.09 GiB (93%)
  24. Writing library                          : x264 core 155 r2901 7d0ff22
  25. Encoding settings                        : cabac=1 / ref=5 / deblock=1:-3:-3 / analyse=0x3:0x133 / me=umh / subme=9 / psy=1 / psy_rd=1.00:0.00 / mixed_ref=1 / me_range=16 / chroma_me=1 / trellis=2 / 8x8dct=1 / cqm=0 / deadzone=21,11 / fast_pskip=0 / chroma_qp_offset=-2 / threads=24 / lookahead_threads=2 / sliced_threads=0 / nr=0 / decimate=1 / interlaced=0 / bluray_compat=0 / constrained_intra=0 / bframes=3 / b_pyramid=2 / b_adapt=1 / b_bias=0 / direct=3 / weightb=1 / open_gop=0 / weightp=2 / keyint=240 / keyint_min=24 / scenecut=40 / intra_refresh=0 / rc_lookahead=50 / rc=2pass / mbtree=1 / bitrate=10033 / ratetol=1.0 / qcomp=0.60 / qpmin=0 / qpmax=69 / qpstep=4 / cplxblur=20.0 / qblur=0.5 / ip_ratio=1.40 / aq=1:1.00
  26. Language                                 : English
  27. Default                                  : Yes
  28. Forced                                   : No

  29. Audio #1
  30. ID                                       : 2
  31. Format                                   : FLAC
  32. Format/Info                              : Free Lossless Audio Codec
  33. Codec IM                                 : I5QAYOL9X6A8XZ
  34. Codec ID                                 : A_FLAC
  35. Duration                                 : 1 h 41 min
  36. Bit rate mode                            : Variable
  37. Bit rate                                 : 411 kb/s
  38. Channel(s)                               : 2 channels
  39. Channel positions                        : Front: L R
  40. Sampling rate                            : 48.0 kHz
  41. Frame rate                               : 11.719 FPS (4096 SPF)
  42. Bit depth                                : 16 bits
  43. Stream size                              : 297 MiB (4%)
  44. Writing library                          : libFLAC 1.2.1 (UTC 2007-09-17)
  45. Language                                 : Chinese
  46. Default                                  : Yes
  47. Forced                                   : No

  48. Audio #2
  49. ID                                       : 3
  50. Format                                   : FLAC
  51. Format/Info                              : Free Lossless Audio Codec
  52. Codec IM                                 : I5QAYOL9X6A8XZ
  53. Codec ID                                 : A_FLAC
  54. Duration                                 : 1 h 41 min
  55. Bit rate mode                            : Variable
  56. Bit rate                                 : 384 kb/s
  57. Channel(s)                               : 2 channels
  58. Channel positions                        : Front: L R
  59. Sampling rate                            : 48.0 kHz
  60. Frame rate                               : 11.719 FPS (4096 SPF)
  61. Bit depth                                : 16 bits
  62. Stream size                              : 278 MiB (4%)
  63. Writing library                          : libFLAC 1.2.1 (UTC 2007-09-17)
  64. Language                                 : English
  65. Default                                  : No
  66. Forced                                   : No

复制代码

精彩剧照

20190801120031.jpg

hao8k提示您,点击下方下载按钮立刻开始下载
少林搭棚大师/少林三十六房续集 Return.to.the.36th.Chamber.1980.1080p.BluRay.x264-REGRET 7.68GB

Return.to.the.36th.Chamber.1980.1080p.BluRay.x264-REGRET.torrent ( 77.6 KB )



遇到问题怎么办?
Hao8k小助手精心为您解答:

蓝光资源该怎么播放?Hao8k精选播放软件汇总
用什么下载Hao8k资源呢?精选下载软件合辑
去看看新手学院,Hao8k小助手带你玩转高清
回复

使用道具 举报

全部回复0 显示全部楼层

声明:您在社区发表的所有信息仅代表用户个人观点,与本网站立场无关,希望各位烧友理性发言,不发表违法国家法律禁止的话题。

您需要登录后才可以回帖 登录 | 立即注册

本版积分规则

开通会员 每日签到 返回顶部 返回列表