开启左侧

[剧情片] 李尔王 King.Lear.2008.1080p.Bluray.x264-hV 13.09GB

Hao8k资源组 发表于 2020-1-26 08:35:03 | 显示全部楼层 |阅读模式

马上注册 Hao8k.cn ,获得更好的体验,让你轻松玩转Hao8k

您需要 登录 才可以下载或查看,没有帐号?立即注册

x
20190801120031.jpg
译  名 李尔王
片  名 King Lear
年  代 2008
产  地 英国
类  别 剧情
语  言 英语
上映日期 2008-12-25(英国)
IMDb评分  7.5/10 from 404 users
◎◎豆瓣评分 /10 from 0 users
◎◎片  长 156分钟
导  演 崔佛·纳恩 Trevor Nunn
主  演
伊恩·麦克莱恩 Ian McKellen

简  介

  None

影片参数

  1. Video
  2. ID                                       : 1
  3. Format                                   : AVC
  4. Format/Info                              : Advanced Video Codec
  5. Format profile                           : High@L4.1
  6. Format settings, CABAC                   : Yes
  7. Format settings, ReFrames                : 4 frames
  8. Codec IM                                 : I5QAYOL9X6A8XZ
  9. Codec ID                                 : V_MPEG4/ISO/AVC
  10. Duration                                 : 3h 1mn
  11. Bit rate                                 : 8 830 Kbps
  12. Width                                    : 1 920 pixels
  13. Height                                   : 1 080 pixels
  14. Display aspect ratio                     : 16:9
  15. Frame rate mode                          : Constant
  16. Frame rate                               : 23.976 (24000/1001) fps
  17. Color space                              : YUV
  18. Chroma subsampling                       : 4:2:0
  19. Bit depth                                : 8 bits #32342
  20. Scan type                                : Progressive
  21. Bits/(Pixel*Frame)                       : 0.178
  22. Stream size                              : 10.9 GiB (83%)
  23. Writing library                          : x264 core 65 r1074M b6bb3d4
  24. Encoding settings                        : cabac=1 / ref=4 / deblock=1:0:0 / analyse=0x3:0x113 / me=umh / subme=7 / psy_rd=1.0:0.0 / mixed_ref=1 / me_range=16 / chroma_me=1 / trellis=1 / 8x8dct=1 / cqm=0 / deadzone=21,11 / chroma_qp_offset=-2 / threads=3 / nr=0 / decimate=1 / mbaff=0 / bframes=3 / b_pyramid=1 / b_adapt=1 / b_bias=0 / direct=3 / wpredb=1 / keyint=24 / keyint_min=1 / scenecut=40(pre) / rc=2pass / bitrate=8830 / ratetol=1.0 / qcomp=0.60 / qpmin=10 / qpmax=51 / qpstep=4 / cplxblur=20.0 / qblur=0.5 / vbv_maxrate=17500 / vbv_bufsize=14745 / ip_ratio=1.40 / pb_ratio=1.30 / aq=1:1.00
  25. Language                                 : English
  26. Default                                  : Yes
  27. Forced                                   : No

  28. Audio
  29. ID                                       : 2
  30. Format                                   : DTS
  31. Format/Info                              : Digital Theater Systems
  32. Mode                                     : 16
  33. Format settings, Endianness              : Big
  34. Codec IM                                 : I5QAYOL9X6A8XZ
  35. Codec ID                                 : A_DTS
  36. Duration                                 : 3h 1mn
  37. Bit rate mode                            : Constant
  38. Bit rate                                 : 1 509 Kbps
  39. Channel(s)                               : 6 channels
  40. Channel positions                        : Front: L C R, Side: L R, LFE
  41. Sampling rate                            : 48.0 KHz
  42. Frame rate                               : 93.750 fps (512 spf)
  43. Bit depth                                : 24 bits
  44. Compression mode                         : Lossy
  45. Stream size                              : 1.91 GiB (15%)
  46. Language                                 : English
  47. Default                                  : Yes
  48. Forced                                   : No

复制代码

精彩剧照

20190801120031.jpg 20190801120031.jpg 20190801120031.jpg 20190801120031.jpg 20190801120031.jpg 20190801120031.jpg

hao8k提示您,点击下方下载按钮立刻开始下载
李尔王 King.Lear.2008.1080p.Bluray.x264-hV 13.09GB

King.Lear.2008.1080p.Bluray.x264-hV.torrent ( 66.02 KB )



遇到问题怎么办?
Hao8k小助手精心为您解答:

蓝光资源该怎么播放?Hao8k精选播放软件汇总
用什么下载Hao8k资源呢?精选下载软件合辑
去看看新手学院,Hao8k小助手带你玩转高清
回复

使用道具 举报

全部回复0 显示全部楼层

声明:您在社区发表的所有信息仅代表用户个人观点,与本网站立场无关,希望各位烧友理性发言,不发表违法国家法律禁止的话题。

您需要登录后才可以回帖 登录 | 立即注册

本版积分规则

开通会员 每日签到 返回顶部 返回列表