开启左侧

[喜剧片] 设想一下 Picture.This.2008.1080p.BluRay.x264-KaKa 6.55GB

Hao8k资源组 发表于 2020-1-26 08:33:47 | 显示全部楼层 |阅读模式

马上注册 Hao8k.cn ,获得更好的体验,让你轻松玩转Hao8k

您需要 登录 才可以下载或查看,没有帐号?立即注册

x
20190801120031.jpg
译  名 设想一下
片  名 Picture This!
年  代 2008
产  地 美国
类  别 喜剧/爱情
语  言 英语/西班牙语
上映日期 2008-07-22
IMDb评分  5.4/10 from 8,964 users
◎◎豆瓣评分 5.6/10 from 588 users
◎◎导  演 Stephen Herek
主  演
Lauren Collins
Cindy Busby
Robbie Amell

简  介

  曼迪(阿什丽·提斯代尔 Ashley Tisdale 饰)是那种她不开口你绝对不会发现其存在的无名小卒,糟糕的是,她却“不自量力”地迷恋上了学校里的风云人物德鲁(罗比·阿梅尔 Robbie Amell 饰),此外,曼迪还有一个死对头丽萨(辛蒂·巴斯毕 Cindy Busby 饰),丽萨的存在让曼迪一次又一次的意识到自己是多么的微不足道。
  一场意外让曼迪获得了同德鲁相识的机会,与此同时,曼迪发现德鲁似乎喜欢上了自己。德鲁邀请曼迪去他家参加一个盛大的派对,就在曼迪兴高采烈地应允之后,她竟然被她那个性严苛又古板的父亲给禁足了!与此同时,曼迪的好友发现了德鲁悉心隐藏的秘密,他与曼迪的相遇和交好绝非偶然。

影片参数

  1. Video
  2. ID                                       : 1
  3. Format                                   : AVC
  4. Format/Info                              : Advanced Video Codec
  5. Format profile                           : High@L4.1
  6. Format settings, CABAC                   : Yes
  7. Format settings, ReFrames                : 4 frames
  8. Muxing mode                              : Header stripping
  9. Codec IM                                 : I5QAYOL9X6A8XZ
  10. Codec ID                                 : V_MPEG4/ISO/AVC
  11. Duration                                 : 1h 32mn
  12. Bit rate                                 : 8 630 Kbps
  13. Width                                    : 1 920 pixels
  14. Height                                   : 1 080 pixels
  15. Display aspect ratio                     : 16:9
  16. Frame rate mode                          : Constant
  17. Frame rate                               : 23.976 (24000/1001) fps
  18. Color space                              : YUV
  19. Chroma subsampling                       : 4:2:0
  20. Bit depth                                : 8 bits #32342
  21. Scan type                                : Progressive
  22. Bits/(Pixel*Frame)                       : 0.174
  23. Stream size                              : 5.44 GiB (83%)
  24. Writing library                          : x264 core 114 r1924 08d04a4
  25. Encoding settings                        : cabac=1 / ref=4 / deblock=1:-1:-1 / analyse=0x3:0x113 / me=umh / subme=7 / psy=1 / psy_rd=1.00:0.00 / mixed_ref=1 / me_range=16 / chroma_me=1 / trellis=1 / 8x8dct=1 / cqm=0 / deadzone=21,11 / fast_pskip=1 / chroma_qp_offset=-2 / threads=12 / sliced_threads=0 / nr=0 / decimate=1 / interlaced=0 / constrained_intra=0 / bframes=3 / b_pyramid=2 / b_adapt=2 / b_bias=0 / direct=3 / weightb=1 / open_gop=0 / weightp=2 / keyint=250 / keyint_min=23 / scenecut=40 / intra_refresh=0 / rc_lookahead=40 / rc=2pass / mbtree=1 / bitrate=8630 / ratetol=1.0 / qcomp=0.60 / qpmin=0 / qpmax=69 / qpstep=4 / cplxblur=20.0 / qblur=0.5 / vbv_maxrate=50000 / vbv_bufsize=50000 / nal_hrd=none / ip_ratio=1.40 / aq=1:1.00
  26. Language                                 : English
  27. Default                                  : Yes
  28. Forced                                   : Yes

  29. Audio
  30. ID                                       : 2
  31. Format                                   : DTS
  32. Format/Info                              : Digital Theater Systems
  33. Mode                                     : 16
  34. Format settings, Endianness              : Big
  35. Muxing mode                              : Header stripping
  36. Codec IM                                 : I5QAYOL9X6A8XZ
  37. Codec ID                                 : A_DTS
  38. Duration                                 : 1h 32mn
  39. Bit rate mode                            : Constant
  40. Bit rate                                 : 1 509 Kbps
  41. Channel(s)                               : 6 channels
  42. Channel positions                        : Front: L C R, Side: L R, LFE
  43. Sampling rate                            : 48.0 KHz
  44. Frame rate                               : 93.750 fps (512 spf)
  45. Bit depth                                : 24 bits
  46. Compression mode                         : Lossy
  47. Stream size                              : 998 MiB (15%)
  48. Language                                 : English
  49. Default                                  : Yes
  50. Forced                                   : Yes

  51. Text
  52. ID                                       : 3
  53. Format                                   : UTF-8
  54. Codec IM                                 : I5QAYOL9X6A8XZ
  55. Codec ID                                 : S_TEXT/UTF8
  56. Codec IM                                 : I5QAYOL9X6A8XZ
  57. Codec ID/Info                            : UTF-8 Plain Text
  58. Language                                 : English
  59. Default                                  : Yes
  60. Forced                                   : No
复制代码

精彩剧照

20190801120031.jpg 20190801120031.jpg 20190801120031.jpg 20190801120031.jpg 20190801120031.jpg 20190801120031.jpg

hao8k提示您,点击下方下载按钮立刻开始下载
设想一下 Picture.This.2008.1080p.BluRay.x264-KaKa 6.55GB

Picture.This.2008.1080p.BluRay.x264-KaKa.torrent ( 66 KB )



遇到问题怎么办?
Hao8k小助手精心为您解答:

蓝光资源该怎么播放?Hao8k精选播放软件汇总
用什么下载Hao8k资源呢?精选下载软件合辑
去看看新手学院,Hao8k小助手带你玩转高清
回复

使用道具 举报

全部回复0 显示全部楼层

声明:您在社区发表的所有信息仅代表用户个人观点,与本网站立场无关,希望各位烧友理性发言,不发表违法国家法律禁止的话题。

您需要登录后才可以回帖 登录 | 立即注册

本版积分规则

开通会员 每日签到 返回顶部 返回列表