开启左侧

[剧情片] 高蒂传/戈蒂传 Gotti.2018.1080p.BluRay.x264-GUACAMOLE 8.74GB

Hao8k资源组 发表于 2020-1-26 08:26:28 | 显示全部楼层 |阅读模式

马上注册 Hao8k.cn ,获得更好的体验,让你轻松玩转Hao8k

您需要 登录 才可以下载或查看,没有帐号?立即注册

x
20190801120031.jpg
译  名 高蒂传/戈蒂传/约翰·高蒂的生与死/高蒂家族:父影之下/高蒂:三代人/雅痞教父高蒂一家人
片  名 Gotti
年  代 2018
产  地 美国
类  别 剧情/传记/犯罪
语  言 英语
上映日期 2018-06-15(美国)
IMDb评分  4.7/10 from 3,291 users
◎◎豆瓣评分 /10 from 0 users
◎◎片  长 104分钟
导  演 凯文·康诺利 Kevin Connolly
主  演
约翰·特拉沃尔塔 John Travolta
凯利·普雷斯顿 Kelly Preston
斯泰西·基齐 Stacy Keach
普路特·泰勒·文斯 Pruitt Taylor Vince
克里斯·马尔基 Chris Mulkey
斯宾赛·洛夫兰科 Spencer Lofranco
丽迪雅·赫尔 Lydia Hull
阿什利·库萨托 Ashley Cusato
威廉·德莫奥 William DeMeo
迈克尔·伍兹 Michael Woods
梅根·伦纳德 Megan Leonard
莱奥·罗西 Leo Rossi
小路易斯·达·席尔瓦 Luis Da Silva Jr.
乔丹·崔威里恩 Jordan Trovillion
泰勒·乔恩·奥尔森 Tyler Jon Olson
萨尔·伦迪诺 Sal Rendino
安德鲁·费斯切拉 Andrew Fiscella

简  介

  讲述纽约历史上最恶名昭著的黑手党家族——甘比诺家族头目约翰·戈蒂的生平事迹。时间跨度长达30年,由戈蒂儿子John Gotti Jr(Spencer Lofranco饰) 回溯往事。
  纽约街头混混出生的戈蒂偶然结识了当时甘比诺家族的二当家安尼罗·德拉克罗什,教父卡洛·甘比诺去世之前却将位置传给了保罗·卡斯特兰诺,后也导致卡斯特兰诺谋杀案,戈蒂如愿当上该家族第七任教父,他和妻子维多利亚(凯莉·普雷斯顿)试图让家族在多项悲剧事件与犯罪指控的情况下团结一致。2002年,患癌的戈蒂在监狱中去世,终年61岁。

影片参数

  1. Video
  2. ID                                       : 1
  3. Format                                   : AVC
  4. Format/Info                              : Advanced Video Codec
  5. Format profile                           : High@L4.1
  6. Format settings                          : CABAC / 5 Ref Frames
  7. Format settings, CABAC                   : Yes
  8. Format settings, RefFrames               : 5 frames
  9. Codec IM                                 : I5QAYOL9X6A8XZ
  10. Codec ID                                 : V_MPEG4/ISO/AVC
  11. Duration                                 : 1 h 49 min
  12. Bit rate                                 : 9 904 kb/s
  13. Width                                    : 1 920 pixels
  14. Height                                   : 808 pixels
  15. Display aspect ratio                     : 2.40:1
  16. Frame rate mode                          : Constant
  17. Frame rate                               : 23.976 (24000/1001) FPS
  18. Color space                              : YUV
  19. Chroma subsampling                       : 4:2:0
  20. Bit depth                                : 8 bits #32342
  21. Scan type                                : Progressive
  22. Bits/(Pixel*Frame)                       : 0.266
  23. Stream size                              : 7.58 GiB (87%)
  24. Writing library                          : x264 core 155 r2901 7d0ff22
  25. Encoding settings                        : cabac=1 / ref=5 / deblock=1:0:0 / analyse=0x3:0x113 / me=umh / subme=8 / psy=1 / psy_rd=1.00:0.00 / mixed_ref=1 / me_range=16 / chroma_me=1 / trellis=2 / 8x8dct=1 / cqm=0 / deadzone=21,11 / fast_pskip=0 / chroma_qp_offset=-2 / threads=12 / lookahead_threads=2 / sliced_threads=0 / nr=0 / decimate=1 / interlaced=0 / bluray_compat=0 / constrained_intra=0 / bframes=3 / b_pyramid=2 / b_adapt=1 / b_bias=0 / direct=1 / weightb=1 / open_gop=0 / weightp=2 / keyint=250 / keyint_min=23 / scenecut=40 / intra_refresh=0 / rc_lookahead=50 / rc=2pass / mbtree=1 / bitrate=9904 / ratetol=1.0 / qcomp=0.60 / qpmin=0 / qpmax=69 / qpstep=4 / cplxblur=20.0 / qblur=0.5 / ip_ratio=1.40 / aq=1:1.00
  26. Default                                  : Yes
  27. Forced                                   : No

  28. Audio
  29. ID                                       : 2
  30. Format                                   : DTS
  31. Format/Info                              : Digital Theater Systems
  32. Mode                                     : 16
  33. Format settings, Endianness              : Big
  34. Codec IM                                 : I5QAYOL9X6A8XZ
  35. Codec ID                                 : A_DTS
  36. Duration                                 : 1 h 49 min
  37. Bit rate mode                            : Constant
  38. Bit rate                                 : 1 509 kb/s
  39. Channel(s)                               : 6 channels
  40. Channel positions                        : Front: L C R, Side: L R, LFE
  41. Sampling rate                            : 48.0 kHz
  42. Frame rate                               : 93.750 FPS (512 SPF)
  43. Bit depth                                : 24 bits
  44. Compression mode                         : Lossy
  45. Stream size                              : 1.15 GiB (13%)
  46. Language                                 : English
  47. Default                                  : Yes
  48. Forced                                   : No
复制代码

精彩剧照

20190801120031.jpg

hao8k提示您,点击下方下载按钮立刻开始下载
高蒂传/戈蒂传 Gotti.2018.1080p.BluRay.x264-GUACAMOLE 8.74GB

Gotti.2018.1080p.BluRay.x264-GUACAMOLE.torrent ( 87.93 KB )



遇到问题怎么办?
Hao8k小助手精心为您解答:

蓝光资源该怎么播放?Hao8k精选播放软件汇总
用什么下载Hao8k资源呢?精选下载软件合辑
去看看新手学院,Hao8k小助手带你玩转高清
回复

使用道具 举报

全部回复0 显示全部楼层

声明:您在社区发表的所有信息仅代表用户个人观点,与本网站立场无关,希望各位烧友理性发言,不发表违法国家法律禁止的话题。

您需要登录后才可以回帖 登录 | 立即注册

本版积分规则

开通会员 每日签到 返回顶部 返回列表