开启左侧

[动画片] 大海/大·海 Big.Fish.and.Begonia.2016.LiMiTED.1080p.BluRay.x264-CADAVER 5.46GB

Hao8k资源组 发表于 2020-1-26 08:10:29 | 显示全部楼层 |阅读模式

马上注册 Hao8k.cn ,获得更好的体验,让你轻松玩转Hao8k

您需要 登录 才可以下载或查看,没有帐号?立即注册

x
20190801120031.jpg
译  名 大海/大·海/大鱼·海棠
片  名 大鱼海棠
年  代 2016
产  地 中国大陆
类  别 剧情/动画/奇幻
语  言 汉语普通话
上映日期 2016-07-08(中国大陆)
IMDb评分  7.2/10 from 1,281 users
◎◎豆瓣评分 6.6/10 from 263,770 users
◎◎片  长 105分钟
导  演 梁旋 Xuan Liang / 张春 Chun Zhang
主  演
季冠霖 Guanlin Ji
苏尚卿 Shangqing Su
许魏洲 Weizhou Xu
金士杰 King Shih-Chieh
杨婷 Yang Ting
潘淑兰 Shulan Pan
九儿 Jiu-Er
王德顺 Deshun Wang
张媛媛 Yuanyuan Zhang
薛立方 Lifang Xue
姜广涛 Guangtao Jiang
阿杰 A Jie
马正阳 Zhengyang Ma
宝木中阳 Bao Mu Zhong Yang
刘校妤 Xiaoyu Liu

简  介

  所有活着的人类,都是海里一条巨大的鱼;出生的时候他们从海的此岸出发。他们的生命就像横越大海,有时相遇,有时分开……死的时候,他们便到了岸,各去各的世界。
  四十五亿年前,这个星球上,只有一片汪洋大海,和一群古老的大鱼。在与人类世界平行的空间里,生活着一个规规矩矩、遵守秩序的族群,他们为神工作,掌管世界万物运行规律,也掌管人类的灵魂。他们的天空与人类世界的大海相连。他们既不是神,也不是人,他们是“其他人”。
  十六岁生日那天,居住在“神之围楼”里的一个名叫椿(季冠霖 配音)的女孩变作一条海豚到人间巡礼,被大海中的一张网困住,一个人类男孩因为救她而落入深海死去。为了报恩,为了让人类男孩复活,她需要在自己的世界里,历经种种困难与阻碍,帮助死后男孩的灵魂——一条拇指那么大的小鱼,成长为一条比鲸更巨大的鱼并回归大海。

◎获奖情况

  第53届台北金马影展  (2016)
  金马奖 最佳原创歌曲(提名)

  第31届中国电影金鸡奖  (2017)
  最佳美术片(提名)

  第3届豆瓣电影年度榜单  (2016)
  最受关注的院线电影(提名)
  7月最受关注电影

影片参数

  1. Video
  2. ID                                       : 1
  3. Format                                   : AVC
  4. Format/Info                              : Advanced Video Codec
  5. Format profile                           : High@L4.1
  6. Format settings                          : CABAC / 5 Ref Frames
  7. Format settings, CABAC                   : Yes
  8. Format settings, RefFrames               : 5 frames
  9. Codec IM                                 : I5QAYOL9X6A8XZ
  10. Codec ID                                 : V_MPEG4/ISO/AVC
  11. Duration                                 : 1 h 45 min
  12. Bit rate                                 : 5 888 kb/s
  13. Width                                    : 1 920 pixels
  14. Height                                   : 808 pixels
  15. Display aspect ratio                     : 2.40:1
  16. Frame rate mode                          : Constant
  17. Frame rate                               : 24.000 FPS
  18. Color space                              : YUV
  19. Chroma subsampling                       : 4:2:0
  20. Bit depth                                : 8 bits #32342
  21. Scan type                                : Progressive
  22. Bits/(Pixel*Frame)                       : 0.158
  23. Stream size                              : 4.33 GiB (79%)
  24. Writing library                          : x264 core 155 r2901 7d0ff22
  25. Encoding settings                        : cabac=1 / ref=5 / deblock=1:2:1 / analyse=0x3:0x133 / me=umh / subme=8 / psy=1 / psy_rd=1.00:0.00 / mixed_ref=1 / me_range=16 / chroma_me=1 / trellis=1 / 8x8dct=1 / cqm=0 / deadzone=21,11 / fast_pskip=0 / chroma_qp_offset=-2 / threads=24 / lookahead_threads=4 / sliced_threads=0 / nr=0 / decimate=1 / interlaced=0 / bluray_compat=0 / constrained_intra=0 / bframes=3 / b_pyramid=2 / b_adapt=1 / b_bias=0 / direct=3 / weightb=1 / open_gop=0 / weightp=2 / keyint=250 / keyint_min=24 / scenecut=40 / intra_refresh=0 / rc_lookahead=50 / rc=2pass / mbtree=1 / bitrate=5888 / ratetol=1.0 / qcomp=0.60 / qpmin=0 / qpmax=69 / qpstep=4 / cplxblur=20.0 / qblur=0.5 / vbv_maxrate=62500 / vbv_bufsize=78125 / nal_hrd=none / filler=0 / ip_ratio=1.40 / aq=1:1.00
  26. Default                                  : Yes
  27. Forced                                   : No

  28. Audio #1
  29. ID                                       : 2
  30. Format                                   : DTS
  31. Format/Info                              : Digital Theater Systems
  32. Mode                                     : 16
  33. Format settings, Endianness              : Big
  34. Codec IM                                 : I5QAYOL9X6A8XZ
  35. Codec ID                                 : A_DTS
  36. Duration                                 : 1 h 45 min
  37. Bit rate mode                            : Constant
  38. Bit rate                                 : 768 kb/s
  39. Channel(s)                               : 6 channels
  40. Channel positions                        : Front: L C R, Side: L R, LFE
  41. Sampling rate                            : 48.0 kHz
  42. Frame rate                               : 93.750 FPS (512 SPF)
  43. Bit depth                                : 24 bits
  44. Compression mode                         : Lossy
  45. Stream size                              : 579 MiB (10%)
  46. Language                                 : Chinese
  47. Default                                  : Yes
  48. Forced                                   : No

  49. Audio #2
  50. ID                                       : 3
  51. Format                                   : DTS
  52. Format/Info                              : Digital Theater Systems
  53. Mode                                     : 16
  54. Format settings, Endianness              : Big
  55. Codec IM                                 : I5QAYOL9X6A8XZ
  56. Codec ID                                 : A_DTS
  57. Duration                                 : 1 h 45 min
  58. Bit rate mode                            : Constant
  59. Bit rate                                 : 768 kb/s
  60. Channel(s)                               : 6 channels
  61. Channel positions                        : Front: L C R, Side: L R, LFE
  62. Sampling rate                            : 48.0 kHz
  63. Frame rate                               : 93.750 FPS (512 SPF)
  64. Bit depth                                : 24 bits
  65. Compression mode                         : Lossy
  66. Stream size                              : 579 MiB (10%)
  67. Language                                 : English
  68. Default                                  : No
  69. Forced                                   : No

复制代码

精彩剧照

20190801120031.jpg

hao8k提示您,点击下方下载按钮立刻开始下载
大海/大·海 Big.Fish.and.Begonia.2016.LiMiTED.1080p.BluRay.x264-CADAVER 5.46GB

Big.Fish.and.Begonia.2016.LiMiTED.1080p.BluRay.x264-CADAVER.torrent ( 109.99 KB )



遇到问题怎么办?
Hao8k小助手精心为您解答:

蓝光资源该怎么播放?Hao8k精选播放软件汇总
用什么下载Hao8k资源呢?精选下载软件合辑
去看看新手学院,Hao8k小助手带你玩转高清
回复

使用道具 举报

全部回复0 显示全部楼层

声明:您在社区发表的所有信息仅代表用户个人观点,与本网站立场无关,希望各位烧友理性发言,不发表违法国家法律禁止的话题。

您需要登录后才可以回帖 登录 | 立即注册

本版积分规则

开通会员 每日签到 返回顶部 返回列表