开启左侧

[动作片] 赶尽杀绝/史密斯先生 Shoot.Em.Up.2007.1080p.BluRay.x264-hV 7.95GB

Hao8k资源组 发表于 2020-1-26 07:39:12 | 显示全部楼层 |阅读模式

马上注册 Hao8k.cn ,获得更好的体验,让你轻松玩转Hao8k

您需要 登录 才可以下载或查看,没有帐号?立即注册

x
20190801120031.jpg
译  名 赶尽杀绝/史密斯先生(台)/无名火(港)/火线保镖
片  名 Shoot "Em Up
年  代 2007
产  地 美国
类  别 动作/冒险/喜剧/犯罪/惊悚
语  言 英语/意大利语
上映日期 2007-09-07(美国)
IMDb评分  6.7/10 from 137,256 users
◎◎豆瓣评分 7.4/10 from 34,970 users
◎◎片  长 86 分钟
导  演 迈克尔·戴维斯 Michael Davis
主  演
克里夫·欧文 Clive Owen
莫妮卡·贝鲁奇 Monica Bellucci
保罗·吉亚玛提 Paul Giamatti
史蒂芬·麦克哈蒂 Stephen McHattie
Greg Bryk

简  介

  漆黑的夜里,史密斯(克里夫?欧文 Clive Owen 饰)无意中被卷入了一场黑帮的追杀,穿越激烈的枪林弹雨,他解救了一个在襁褓中的婴儿。婴儿的啼哭,让这个功夫了得的铁汉遭遇了难言的尴尬。除了在超市购置婴儿用品之外,他还得解决婴儿的喂奶问题。这时,他想到了在妓院工作的朋友DQ(莫妮卡?贝鲁奇 Monica Bellucci 饰),并强行赶走了嫖客,把婴儿托付给她。DQ其实对史密斯怀有深情,却一直没有机会表白。在蜂拥而至的黑帮暴徒来临之际,两人终于坦诚相见,并肩作战,照顾婴儿。经过史密斯的调查,他们发现想要加害婴儿的黑帮其实跟军火商有关系,而且他们还雇佣了很多代孕妈妈。史密斯隐隐觉得这背后隐藏着一个不可告人的秘密,于是他决定铤而走险,一场正邪较量由此展开……

影片参数

  1. Video
  2. ID                                       : 2
  3. Format                                   : AVC
  4. Format/Info                              : Advanced Video Codec
  5. Format profile                           : High@L5.1
  6. Format settings                          : CABAC / 8 Ref Frames
  7. Format settings, CABAC                   : Yes
  8. Format settings, ReFrames                : 8 frames
  9. Format settings, GOP                     : N=1
  10. Codec IM                                 : I5QAYOL9X6A8XZ
  11. Codec ID                                 : V_MPEG4/ISO/AVC
  12. Duration                                 : 1 h 26 min
  13. Bit rate                                 : 11.6 Mb/s
  14. Width                                    : 1 920 pixels
  15. Height                                   : 816 pixels
  16. Display aspect ratio                     : 2.35:1
  17. Original display aspect ratio            : 2.35:1
  18. Frame rate mode                          : Constant
  19. Frame rate                               : 23.976 FPS
  20. Color space                              : YUV
  21. Chroma subsampling                       : 4:2:0
  22. Bit depth                                : 8 bits #32342
  23. Scan type                                : Progressive
  24. Bits/(Pixel*Frame)                       : 0.310
  25. Stream size                              : 6.88 GiB (87%)
  26. Writing library                          : x264 core 57 svn-709C
  27. Encoding settings                        : cabac=1 / ref=5 / deblock=1:0:0 / analyse=0x3:0x113 / me=umh / fpel_cmp=sad / subme=6 / me-prepass=0 / brdo=1 / mixed_ref=1 / me_range=16 / chroma_me=1 / trellis=1 / 8x8dct=1 / cqm=2 / deadzone=4,6 / chroma_qp_offset=0 / threads=6 / nr=0 / decimate=1 / mbaff=0 / bframes=3 / b_pyramid=1 / b_adapt=1 / b_bias=0 / direct=3 / wpredb=1 / bime=1 / keyint=250 / keyint_min=25 / scenecut=40(pre) / rc=2pass / bitrate=11635 / ratetol=1.0 / rceq=\"blurCplx^(1-qComp)\" / qcomp=0.60 / qpmin=10 / qpmax=51 / qpstep=4 / cplxblur=20.0 / qblur=0.5 / ip_ratio=1.40 / pb_ratio=1.30 / aq=1:0.3:15.0
  28. Language                                 : English
  29. Default                                  : Yes
  30. Forced                                   : No

  31. Audio
  32. ID                                       : 1
  33. Format                                   : DTS
  34. Format/Info                              : Digital Theater Systems
  35. Codec IM                                 : I5QAYOL9X6A8XZ
  36. Codec ID                                 : A_DTS
  37. Duration                                 : 1 h 26 min
  38. Bit rate mode                            : Constant
  39. Bit rate                                 : 1 509 kb/s
  40. Channel(s)                               : 6 channels
  41. Channel positions                        : Front: L C R, Side: L R, LFE
  42. Sampling rate                            : 48.0 kHz
  43. Frame rate                               : 93.750 FPS (512 SPF)
  44. Bit depth                                : 24 bits
  45. Compression mode                         : Lossy
  46. Stream size                              : 934 MiB (11%)
  47. Language                                 : English
  48. Default                                  : Yes
  49. Forced                                   : No
复制代码

精彩剧照

20190801120031.jpg 20190801120031.jpg 20190801120031.jpg

  

hao8k提示您,点击下方下载按钮立刻开始下载
赶尽杀绝/史密斯先生 Shoot.Em.Up.2007.1080p.BluRay.x264-hV 7.95GB

Shoot.Em.Up.2007.1080p.BluRay.x264-hV.torrent ( 79.99 KB )



遇到问题怎么办?
Hao8k小助手精心为您解答:

蓝光资源该怎么播放?Hao8k精选播放软件汇总
用什么下载Hao8k资源呢?精选下载软件合辑
去看看新手学院,Hao8k小助手带你玩转高清
回复

使用道具 举报

全部回复0 显示全部楼层

声明:您在社区发表的所有信息仅代表用户个人观点,与本网站立场无关,希望各位烧友理性发言,不发表违法国家法律禁止的话题。

您需要登录后才可以回帖 登录 | 立即注册

本版积分规则

开通会员 每日签到 返回顶部 返回列表