开启左侧

[惊悚片] 要听神明的话/诚如神之所说 As.The.Gods.Will.2014.1080p.BluRay.x264-RedBlade 10.93GB

Hao8k资源组 发表于 2020-1-26 07:01:53 | 显示全部楼层 |阅读模式

马上注册 Hao8k.cn ,获得更好的体验,让你轻松玩转Hao8k

您需要 登录 才可以下载或查看,没有帐号?立即注册

x
20190801120031.jpg
译  名 要听神明的话/诚如神之所说/如神明之言
片  名 神さまの言うとおり
年  代 2014
产  地 日本
类  别 惊悚/恐怖
语  言 日语
上映日期 2014-10-18(罗马电影节)/2014-11-15(日本)
IMDb评分  6.5/10 from 3,016 users
◎◎豆瓣评分 6.5/10 from 17,983 users
◎◎片  长 117min
导  演 三池崇史 Takashi Miike
主  演
福士苍汰 S?ta Fukushi
山崎紘菜 Hirona Yamazaki
神木隆之介 Ry?nosuke Kamiki
染谷将太 Sh?ta Sometani
优希美青 Mio Yuki
大森南朋 Nao Omori
中川雅也 Lily Franky
前田敦子 Atsuko Maeda
水田山葵 Wasabi Mizuta
山崎努 Tsutomu Yamazaki

简  介

  对当下的生活倍感无聊和失望的高中生高畑瞬(福士苍汰 饰),从没想到人生会发生如此可怕的巨变。课堂上老师的脑袋突然爆开,紧接着会说话的达摩不倒翁出现在讲桌上,逼迫着惊慌失措的学生们玩起了“一二三不许动”。经过数轮血腥较量,瞬成为班内唯一的幸存者,他跌跌撞撞逃出教室,遇到了也从死亡线上暂时逃脱的青梅竹马秋元依智香(山崎紘菜 饰)。两人在寻找出路时撞进了体育馆,谁知这里正是下一轮游戏的舞台。未过多久,巨大的招财猫(前田敦子 配音)出现,和幸存者们玩起了抓老鼠的死亡游戏。考量体力、智力和想象力的关卡连番到来,瞬、依智香还有周身散发着死神气息的天谷武(神木隆之介 饰)迎接着命运的巨变……
  本片根据金城宗幸(原作)、藤村绯二(作画)的同名漫画的第一部改编。

◎获奖情况

  第38届日本电影学院奖  (2015)
  最佳新人 福士苍汰

影片参数

  1. Video
  2. ID                                       : 1
  3. Format                                   : AVC
  4. Format/Info                              : Advanced Video Codec
  5. Format profile                           : High@L4.1
  6. Format settings                          : CABAC / 5 Ref Frames
  7. Format settings, CABAC                   : Yes
  8. Format settings, RefFrames               : 5 frames
  9. Codec IM                                 : I5QAYOL9X6A8XZ
  10. Codec ID                                 : V_MPEG4/ISO/AVC
  11. Duration                                 : 1 h 56 min
  12. Bit rate                                 : 8 714 kb/s
  13. Width                                    : 1 920 pixels
  14. Height                                   : 808 pixels
  15. Display aspect ratio                     : 2.40:1
  16. Frame rate mode                          : Constant
  17. Frame rate                               : 23.976 (24000/1001) FPS
  18. Color space                              : YUV
  19. Chroma subsampling                       : 4:2:0
  20. Bit depth                                : 8 bits #32342
  21. Scan type                                : Progressive
  22. Bits/(Pixel*Frame)                       : 0.234
  23. Stream size                              : 7.12 GiB (65%)
  24. Writing library                          : x264 core 155 r2901 7d0ff22
  25. Encoding settings                        : cabac=1 / ref=5 / deblock=1:-3:-3 / analyse=0x3:0x113 / me=umh / subme=8 / psy=1 / psy_rd=1.00:0.00 / mixed_ref=1 / me_range=16 / chroma_me=1 / trellis=1 / 8x8dct=1 / cqm=0 / deadzone=21,11 / fast_pskip=1 / chroma_qp_offset=-2 / threads=12 / lookahead_threads=2 / sliced_threads=0 / nr=0 / decimate=1 / interlaced=0 / bluray_compat=0 / constrained_intra=0 / bframes=3 / b_pyramid=2 / b_adapt=2 / b_bias=0 / direct=3 / weightb=1 / open_gop=0 / weightp=2 / keyint=240 / keyint_min=24 / scenecut=40 / intra_refresh=0 / rc_lookahead=50 / rc=2pass / mbtree=1 / bitrate=8714 / ratetol=1.0 / qcomp=0.60 / qpmin=0 / qpmax=69 / qpstep=4 / cplxblur=20.0 / qblur=0.5 / vbv_maxrate=62500 / vbv_bufsize=78125 / nal_hrd=none / filler=0 / ip_ratio=1.40 / aq=1:1.00
  26. Language                                 : English
  27. Default                                  : Yes
  28. Forced                                   : No

  29. Audio #1
  30. ID                                       : 2
  31. Format                                   : FLAC
  32. Format/Info                              : Free Lossless Audio Codec
  33. Codec IM                                 : I5QAYOL9X6A8XZ
  34. Codec ID                                 : A_FLAC
  35. Duration                                 : 1 h 56 min
  36. Bit rate mode                            : Variable
  37. Bit rate                                 : 2 423 kb/s
  38. Channel(s)                               : 6 channels
  39. Channel positions                        : Front: L C R, Side: L R, LFE
  40. Sampling rate                            : 48.0 kHz
  41. Frame rate                               : 11.719 FPS (4096 SPF)
  42. Bit depth                                : 24 bits
  43. Detected bit depth                       : 20 bits
  44. Stream size                              : 1.98 GiB (18%)
  45. Writing library                          : libFLAC 1.2.1 (UTC 2007-09-17)
  46. Language                                 : Japanese
  47. Default                                  : Yes
  48. Forced                                   : No

  49. Audio #2
  50. ID                                       : 3
  51. Format                                   : FLAC
  52. Format/Info                              : Free Lossless Audio Codec
  53. Codec IM                                 : I5QAYOL9X6A8XZ
  54. Codec ID                                 : A_FLAC
  55. Duration                                 : 1 h 56 min
  56. Bit rate mode                            : Variable
  57. Bit rate                                 : 2 237 kb/s
  58. Channel(s)                               : 6 channels
  59. Channel positions                        : Front: L C R, Side: L R, LFE
  60. Sampling rate                            : 48.0 kHz
  61. Frame rate                               : 11.719 FPS (4096 SPF)
  62. Bit depth                                : 24 bits
  63. Detected bit depth                       : 20 bits
  64. Stream size                              : 1.83 GiB (17%)
  65. Writing library                          : libFLAC 1.2.1 (UTC 2007-09-17)
  66. Language                                 : English
  67. Default                                  : No
  68. Forced                                   : No

复制代码

精彩剧照

20190801120031.jpg

  

hao8k提示您,点击下方下载按钮立刻开始下载
要听神明的话/诚如神之所说 As.The.Gods.Will.2014.1080p.BluRay.x264-RedBlade 10.93GB

As.The.Gods.Will.2014.1080p.BluRay.x264-RedBlade.torrent ( 55.34 KB )



遇到问题怎么办?
Hao8k小助手精心为您解答:

蓝光资源该怎么播放?Hao8k精选播放软件汇总
用什么下载Hao8k资源呢?精选下载软件合辑
去看看新手学院,Hao8k小助手带你玩转高清
回复

使用道具 举报

全部回复0 显示全部楼层

声明:您在社区发表的所有信息仅代表用户个人观点,与本网站立场无关,希望各位烧友理性发言,不发表违法国家法律禁止的话题。

您需要登录后才可以回帖 登录 | 立即注册

本版积分规则

开通会员 每日签到 返回顶部 返回列表