QQ登录

只需一步,快速开始

切换到宽版
微信扫一扫 分享朋友圈

已有 447 人浏览分享

开启左侧

Lady Gaga 恶魔舞会巡演之麦迪逊公园广场演唱会 Lady.Gaga.The.Monster.Ball.Tour.At.Madison.Square.Garden.2011.1080p.BluRay.x264.DD5.1-FGT 12.01GB

[复制链接]
447 9

马上注册 Hao8k.cn ,获得更好的体验,让你轻松玩转Hao8k

您需要 登录 才可以下载或查看,没有帐号?立即注册

x
Lady Gaga 恶魔舞会巡演之麦迪逊公园广场演唱会 Lady.Gaga.The.Monster.Ball.Tour.At.Madison.Square.Garden.2011.1080p.BluRay.x264.DD5.1-FGT 12.01GB-1.png

译  名 Lady Gaga 恶魔舞会巡演之麦迪逊公园广场演唱会 / Lady Gaga: Monster Ball Tour 2011
片  名 Lady Gaga Presents: The Monster Ball Tour at Madison Square Garden
年  代 2011
产  地 美国
类  别 纪录片 / 音乐
语  言 英语
上映日期 2011-05-07
IMDb评分  8.2/10 from 2004 users
豆瓣评分 9.6/10 from 277 users
片  长 114分钟
导  演 Laurieann Gibson
主  演
Lady Gaga

简  介
  Lady Gaga早前在纽约麦迪逊广场的演唱会,获HBO电视台全程跟进拍摄,并将于稍后时间以纪录片形式播放。近日,网上便流传一段Gaga在后台接受HBO访问的片段,可见Gaga一边化妆一边谈及她成名经过,当说到激动之处时,她更忍不住爆粗及落泪:「虽然我已走红,但有时候我仍觉得自己好失败。」Gaga又表示,她不时催眠自己是一名超级巨星,希望能满足所有Fans对她的要求;但这样子却令她背负沉重压力,担心自己随时会被这份不安情绪摧毁。
  来自ladygaga贴吧的翻译:
  想到那么多人都想要阻止我很难过,后来想到只要我的粉丝理解,我才不管别人怎么样,我只想让我的fans无畏勇敢。
  只是有时候我仍觉得自己是个失败者,不敢想象我为什么这样,身边都是保镖而我仍觉得自己是高中时候那个失败的我。我得振作,我得每天早上告诉自己我是个superstar,这样才能熬过一天,这样才能成为我的fans需要我成为的人但有时我仍觉得人们想要毁掉我,可是我不能被毁掉,我不能被毁掉,我也不会被毁掉,你也永远不可能把我毁掉,你也永远不可能毁掉我的fans王国。
  我就是觉得我得抗争,为那些依赖我的孩子,为那些和我感受一样的孩子们。
  每次想到人们都不知道我有多真实和诚实,我就感到非常受伤。因为他们看到假发红唇他们就直接把我否定了,他们都不会去理解。
  对不起……我只是想为他们(fans)成为queen,但有时我不觉得自己是……这已经不再是为了我自己要成为赢家,我要为了他们所有人成为赢家……
  真主请给予我力量。让我为了他们而不是自己成为赢家,让我使周围的人而非我自己变得强大,因为他们是天赐的礼物。我的天赋不是自我崇拜,是崇拜他人。请让我坚强,请让我知道自己的力量,请让我勇敢,上帝请给我勇气,请不要让我妥协于那些糟糕的感受,不要让我丢掉自己的安全感,请让我为了舞台上的所有人唱歌跳舞活着呼吸着,为了舞台上所有舞者乐队,为了音乐,为了你。阿门。
  本次演唱会曲目列表
  Act I: NYC
  01. Jumping Film
  02. "Dance In the Dark"
  03. "Glitter and Grease"
  04. "Just Dance"
  05. "Beautiful, Dirty, Rich"
  06. "The Fame"
  Act II: Tube
  07. Puke Film
  08. "LoveGame"
  09. "Boys Boys Boys"
  10. "Money Honey"
  11. "Telephone"
  12. "Speechless"
  13. "You and I"
  14. Twister Film
  15. "So Happy I Could Die"
  Act III: Central Park
  16. Antler Film
  17. "Monster"
  18. "Teeth"
  19. "Alejandro"
  20. Monster Film (Manifesto of Little Monsters)
  21. "Poker Face"
  Act IV: The Monster Ball
  22. Apocalyptic Film
  23. Борьба с Paparazzo ("Paparazzi"
  24. "Bad Romance"
  25. "Born This Way"
  26. Fan Film

影片参数
  1. Video
  2. ID                                       : 1
  3. Format                                   : AVC
  4. Format/Info                              : Advanced Video Codec
  5. Format profile                           : <a href="/cdn-cgi/l/email-protection" class="__cf_email__" data-cfemail="561e3f313e161a627867">[email protected]</a>
  6. Format settings, CABAC                   : Yes
  7. Format settings, ReFrames                : 4 frames
  8. Codec ID                                 : V_MPEG4/ISO/AVC
  9. Duration                                 : 1h 54mn
  10. Bit rate                                 : 14.4 Mbps
  11. Width                                    : 1 914 pixels
  12. Height                                   : 1 080 pixels
  13. Display aspect ratio                     : 16:9
  14. Frame rate mode                          : Constant
  15. Frame rate                               : 23.976 (23976/1000) fps
  16. Color space                              : YUV
  17. Chroma subsampling                       : 4:2:0
  18. Bit depth                                : 8 bits
  19. Scan type                                : Progressive
  20. Bits/(Pixel*Frame)                       : 0.290
  21. Stream size                              : 11.3 GiB (94%)
  22. Writing library                          : x264 core 116 r2074 2641b9e
  23. Encoding settings                        : cabac=1 / ref=4 / deblock=1:-3:-3 / analyse=0x3:0x113 / me=umh / subme=9 / psy=1 / psy_rd=1.10:0.00 / mixed_ref=1 / me_range=32 / chroma_me=1 / trellis=2 / 8x8dct=1 / cqm=0 / deadzone=21,11 / fast_pskip=0 / chroma_qp_offset=-4 / threads=6 / sliced_threads=0 / nr=0 / decimate=0 / interlaced=0 / bluray_compat=0 / constrained_intra=0 / bframes=6 / b_pyramid=2 / b_adapt=2 / b_bias=0 / direct=3 / weightb=1 / open_gop=0 / weightp=2 / keyint=250 / keyint_min=23 / scenecut=40 / intra_refresh=0 / rc_lookahead=48 / rc=2pass / mbtree=1 / bitrate=14388 / ratetol=1.0 / qcomp=0.60 / qpmin=0 / qpmax=69 / qpstep=4 / cplxblur=20.0 / qblur=0.5 / ip_ratio=1.40 / aq=1:0.80
  24. Language                                 : English
  25. Default                                  : Yes
  26. Forced                                   : No

  27. Audio
  28. ID                                       : 2
  29. Format                                   : AC-3
  30. Format/Info                              : Audio Coding 3
  31. Mode extension                           : CM (complete main)
  32. Format settings, Endianness              : Big
  33. Codec ID                                 : A_AC3
  34. Duration                                 : 1h 54mn
  35. Bit rate mode                            : Constant
  36. Bit rate                                 : 640 Kbps
  37. Channel(s)                               : 6 channels
  38. Channel positions                        : Front: L C R, Side: L R, LFE
  39. Sampling rate                            : 48.0 KHz
  40. Frame rate                               : 31.250 fps (1536 spf)
  41. Compression mode                         : Lossy
  42. Stream size                              : 524 MiB (4%)
  43. Default                                  : Yes
  44. Forced                                   : No
复制代码

精彩剧照

Lady Gaga 恶魔舞会巡演之麦迪逊公园广场演唱会 Lady.Gaga.The.Monster.Ball.Tour.At.Madison.Square.Garden.2011.1080p.BluRay.x264.DD5.1-FGT 12.01GB-2.png Lady Gaga 恶魔舞会巡演之麦迪逊公园广场演唱会 Lady.Gaga.The.Monster.Ball.Tour.At.Madison.Square.Garden.2011.1080p.BluRay.x264.DD5.1-FGT 12.01GB-3.png Lady Gaga 恶魔舞会巡演之麦迪逊公园广场演唱会 Lady.Gaga.The.Monster.Ball.Tour.At.Madison.Square.Garden.2011.1080p.BluRay.x264.DD5.1-FGT 12.01GB-1.png Lady Gaga 恶魔舞会巡演之麦迪逊公园广场演唱会 Lady.Gaga.The.Monster.Ball.Tour.At.Madison.Square.Garden.2011.1080p.BluRay.x264.DD5.1-FGT 12.01GB-5.png Lady Gaga 恶魔舞会巡演之麦迪逊公园广场演唱会 Lady.Gaga.The.Monster.Ball.Tour.At.Madison.Square.Garden.2011.1080p.BluRay.x264.DD5.1-FGT 12.01GB-6.png Lady Gaga 恶魔舞会巡演之麦迪逊公园广场演唱会 Lady.Gaga.The.Monster.Ball.Tour.At.Madison.Square.Garden.2011.1080p.BluRay.x264.DD5.1-FGT 12.01GB-7.png

Hao8k提示您,点击下方附件名称 马上开始下载
Lady Gaga 恶魔舞会巡演之麦迪逊公园广场演唱会 Lady.Gaga.The.Monster.Ball.Tour.At.Madison.Square.Garden.2011.1080p.BluRay.x264.DD5.1-FGT 12.01GB
Lady.Gaga.The.Monster.Ball.Tour.At.Madison.Square.Garden.2011.1080p.BluRay.x264.torrent
         (60.77 KB, 下载次数: 3, 售价: 8 K币)

举报 使用道具

回复

评论 9

上善若水 上善若水    发表于 2020-2-5 17:30:03 | 显示全部楼层
感谢楼主分享

举报 使用道具

回复
遇见更美好的自 遇见更美好的自    发表于 2020-3-20 16:07:48 | 显示全部楼层
上善若水 发表于 2020-2-5 17:306 L0 y+ W0 e1 Y; U0 J) R1 R
感谢楼主分享
) o; c$ o* Z6 l2 V/ d! N& q
6666666666666666
( T+ {5 P% F; M! `7 t

举报 使用道具

回复
遇见更美好的自 遇见更美好的自    发表于 2020-3-20 16:08:07 | 显示全部楼层
666666666666

举报 使用道具

回复
遇见更美好的自 遇见更美好的自    发表于 2020-3-20 16:08:29 | 显示全部楼层
8 N' M* O: m% t4 k4 N# ^
66666666666666666666666666666666666666666666
1 x! Q, t, C5 |' h" J; L

举报 使用道具

回复
胡李胡涂 胡李胡涂    发表于 2020-6-7 17:31:43 | 显示全部楼层
Hao8k小助手精心为您解答:

举报 使用道具

回复
苍龙 苍龙    发表于 2020-9-17 18:00:24 | 显示全部楼层
6666666666666666666666

举报 使用道具

回复
TLB TLB    发表于 2020-10-9 17:22:44 | 显示全部楼层
谢谢楼主分享

举报 使用道具

回复
恭恭敬敬 恭恭敬敬    发表于 2021-4-9 08:55:12 | 显示全部楼层
感谢楼主分享。

举报 使用道具

回复
cim0418 cim0418    发表于 2021-4-29 12:26:34 | 显示全部楼层
谢谢分享,辛苦了

举报 使用道具

回复
您需要登录后才可以回帖 登录 | 立即注册

本版积分规则

0

关注

1

粉丝

55093

主题
今日演唱会推荐
下载排行
最新演唱会
今日推荐
    • Hao8K.cn 专注4K蓝光原盘资源
    • 本站内容部分由用户自主分享和转载自互联网,不代表
    • 本网赞同其观点和对其真实性负责。如有侵权、违反国
    • 家法律行为请联系我们第一时间及时清除和处理!
    • 反馈邮箱:lanniao@1080pro.net

    QQ|小黑屋|hao8k.cn-蓝光电影网 ( 渝ICP备19014890号-2 )|网站地图

    Copyright ©2019-2020 Hao8k.cn (蓝光电影网)