开启左侧

[剧情片] 罗马帝国艳情史.Caligula.1979.IT.Uncut.BluRay.1920x1036p.x264.AC3-KOOK.[意英双语.中英双字]

Hao8k资源组 发表于 2020-1-11 05:01:22 | 显示全部楼层 |阅读模式

马上注册 Hao8k.cn ,获得更好的体验,让你轻松玩转Hao8k

您需要 登录 才可以下载或查看,没有帐号?立即注册

x
20190801120031.jpg
※※※※※※※ 影片信息 ※※※※※※※
◎片   名 Caligula
◎译   名 罗马帝国艳情史/暴帝卡里古拉 / 嘉里古拉 / 卡里古拉 / Caligola
◎年   代 1979
◎国   家 意大利 / 美国
◎类   别 剧情 / 情色 / 历史
◎语   言 意大利语 / 英语
◎上映日 期 1979-08-14(意大利) / 1980-02-15(美国)
◎字   幕 中英双字/简体字幕/繁体字幕/英文字幕
◎IMDB评分   5.3/10 from 27906 users
◎视频尺 寸  1920x1036p
◎片   长 155 mins
◎导   演 导演: 丁度·巴拉斯 / 鲍勃·古乔内
◎编     剧  戈尔·维达尔 / 佛朗哥·罗塞利尼
◎主   演 马尔科姆·麦克道威尔 / 特蕾莎·安·萨沃伊 / 彼得·奥图尔 / 海伦·米伦 / 圭多·曼纳里

简  介
  公元37年,显赫一时的罗马帝国开始进入最为淫靡黑暗的时期。77岁的老皇帝提比略(Peter O Toole 饰)残暴昏聩,阴森恶毒,而他的继任者卡里古拉(Malcolm McDowell 饰)则有过之而无不及。卡里古拉是提比略的养孙,他长期与妹妹朱西拉(Teresa Ann Savoy 饰)私通,在位期间以残酷的手段杀害百姓和大臣,并因此取乐。为了巩固政权,他更杀害自己的弟弟以及曾帮助他谋取皇位的卫队长马克(Guido Mannari 饰)。他爱谁?很谁?似乎永不明了,只有无尽的欲望与探念将那人性不断吞噬,连同生命消亡殆尽…
片源:Caligula 1979 1080P ITA-ENG Uncut.mkv
General
Unique ID                      : 240479129243564813257873352398643180729 (0xB4EA98794F36A72A8C529C375660B4B9)
Format                         : Matroska
Format version                 : Version 4 / Version 2
File size                      : 7.51GB
Duration                       : 2 h 35 min
Overall bit rate               : 6 918 kb/s
Encoded date                   : UTC 2016-12-17 07:12:29
Writing application            : mkvmerge v9.4.2 ( So High ) 64bit
Writing library                : libebml v1.3.4 + libmatroska v1.4.5
Video
ID                             : 1
Format                         : AVC
Format/Info                    : Advanced Video Codec
Format profile                 : [email protected]/*  */
Format settings, CABAC         : Yes
Format settings, ReFrames      : 4 frames
Codec ID                       : V_MPEG4/ISO/AVC
Duration                       : 2 h 35 min
Bit rate                       : 6 020 kb/s
Width                          : 1 920 pixels
Height                         : 1 036 pixels
Display aspect ratio           : 1.85:1
Frame rate mode                : Constant
Frame rate                     : 24.000 FPS
Color space                    : YUV
Chroma subsampling             : 4:2:0
Bit depth                      : 8 bits
Scan type                      : Progressive
Bits/(Pixel*Frame)             : 0.126
Stream size                    : 6.54GB (87%)
Writing library                : x264 core 142 r2479 dd79a61
Encoding settings              : cabac=1 / ref=4 / deblock=1:0:0 /   : English
Default                        : Yes
Forced                         : No
Color range                    : Limited
Color primaries                : BT.709
Transfer characteristics       : BT.709
Matrix coefficients            : BT.709
Audio #1
ID                             : 2
Format                         : AC-3
Format/Info                    : Audio Coding 3
Mode extension                 : CM (complete main)
Format settings, Endianness    : Big
Codec ID                       : A_AC3
Duration                       : 2 h 35 min
Bit rate mode                  : Constant
Bit rate                       : 448 kb/s
Channel(s)                     : 6 channels
Channel positions              : Front: L C R, Side: L R, LFE
Sampling rate                  : 48.0 kHz
Frame rate                     : 31.250 FPS (1536 spf)
Compression mode               : Lossy
Delay relative to video        : -83 ms
Stream size                    : 498 MiB (6%)
Language                       : Italian
Default                        : Yes
Forced                         : No
Audio #2
ID                             : 3
Format                         : AC-3
Format/Info                    : Audio Coding 3
Mode extension                 : CM (complete main)
Format settings, Endianness    : Big
Codec ID                       : A_AC3
Duration                       : 2 h 35 min
Bit rate mode                  : Constant
Bit rate                       : 448 kb/s
Channel(s)                     : 6 channels
Channel positions              : Front: L C R, Side: L R, LFE
Sampling rate                  : 48.0 kHz
Frame rate                     : 31.250 FPS (1536 spf)
Compression mode               : Lossy
Delay relative to video        : -83 ms
Stream size                    : 498 MiB (6%)
Language                       : English
Default                        : No
Forced                         : No
Text #1
ID                             : 4
Format                         : ASS
Codec ID                       : S_TEXT/ASS
Codec ID/Info                  : Advanced Sub Station Alpha
Duration                       : 2 h 34 min
Bit rate                       : 158 b/s
Count of elements              : 1070
Compression mode               : Lossless
Stream size                    : 179 KiB (0%)
Title                          : 中英双字
Language                       : Chinese
Default                        : Yes
Forced                         : No
Text #2
ID                             : 5
Format                         : ASS
Codec ID                       : S_TEXT/ASS
Codec ID/Info                  : Advanced Sub Station Alpha
Duration                       : 2 h 34 min
Bit rate                       : 90 b/s
Count of elements              : 1070
Compression mode               : Lossless
Stream size                    : 102 KiB (0%)
Title                          : 简体字幕
Language                       : Chinese
Default                        : No
Forced                         : No
Text #3
ID                             : 6
Format                         : ASS
Codec ID                       : S_TEXT/ASS
Codec ID/Info                  : Advanced Sub Station Alpha
Duration                       : 2 h 34 min
Bit rate                       : 90 b/s
Count of elements              : 1070
Compression mode               : Lossless
Stream size                    : 102 KiB (0%)
Title                          : 繁体字幕
Language                       : Chinese
Default                        : No
Forced                         : No
Text #4
ID                             : 7
Format                         : UTF-8
Codec ID                       : S_TEXT/UTF8
Codec ID/Info                  : UTF-8 Plain Text
Duration                       : 2 h 30 min
Bit rate                       : 28 b/s
Count of elements              : 972
Stream size                    : 30.8 KiB (0%)
Title                          : 英文字幕
Language                       : English
Default                        : No
Forced                         : No
Text #5
ID                             : 8
Format                         : UTF-8
Codec ID                       : S_TEXT/UTF8
Codec ID/Info                  : UTF-8 Plain Text
Duration                       : 2 h 17 min
Bit rate                       : 4 b/s
Count of elements              : 125
Stream size                    : 4.35 KiB (0%)
Title                          : 意大利字幕
Language                       : Italian
Default                        : No
Forced                         : No
20190801120031.jpg                                                                                                                                                                                                         

                                                                                                                                                  

hao8k提示您,点击下方下载按钮立刻开始下载
罗马帝国艳情史.Caligula.1979.IT.Uncut.BluRay.1920x1036p.x264.AC3-KOOK.[意英双语.中英双字]

罗马帝国艳情史.Caligula.1979.IT.Uncut.BluRay.1920x1036p.x264.AC3-KOOK.[意英双语..torrent ( 160.68 KB )



遇到问题怎么办?
Hao8k小助手精心为您解答:

蓝光资源该怎么播放?Hao8k精选播放软件汇总
用什么下载Hao8k资源呢?精选下载软件合辑
去看看新手学院,Hao8k小助手带你玩转高清
回复

使用道具 举报

全部回复0 显示全部楼层

声明:您在社区发表的所有信息仅代表用户个人观点,与本网站立场无关,希望各位烧友理性发言,不发表违法国家法律禁止的话题。

您需要登录后才可以回帖 登录 | 立即注册

本版积分规则

开通会员 每日签到 返回顶部 返回列表