开启左侧

[剧情片] 我是布莱克 I.Daniel.Blake.2016.720p.BluRay.DD5.1.x264-SpaceHD 6.3GB

Hao8k资源组 发表于 2020-1-11 04:53:31 | 显示全部楼层 |阅读模式

马上注册 Hao8k.cn ,获得更好的体验,让你轻松玩转Hao8k

您需要 登录 才可以下载或查看,没有帐号?立即注册

x
20190801120031.jpg
片  名  I, Daniel Blake
译  名  我是布莱克/我,不低头/我,丹尼尔·布莱克
年  代  2016
国  家  英国/法国/比利时
◎电影类型  剧情
语  言  英语
上映日期  2016-05-13(戛纳电影节)/2016-10-21(英国)/2016-10-26(法国)
◎iMDB评分  8.0/10 (10,010 votes)
◎iMDB链接  https://www.imdb.com/title/tt5168192/
片  长  1h:40m:5s
导  演  肯·洛奇 Ken Loach
◎演  员  戴夫·琼斯 Dave Johns
       海莉·斯奎尔斯 Hayley Squires
       莎伦·佩尔西 Sharon Percy
       布莱恩娜·尚恩 Briana Shann
       迪伦·麦基尔南 Dylan McKiernan
       娜塔利·安·杰米森 Natalie Ann Jamieson
       史蒂芬·克雷格 Stephen Clegg
简  介
 59岁的Daniel Blake是个木匠,由于心脏问题,他生平第一次需要申请社会救济。尽管他的医生禁止他继续工作,但他依然决定冒着被罚款的风险找一份工作。在他反复前往“就业中心”求职的过程中,他结识了Rachel,一位需要照顾两个孩子的单身母亲。为了不让孩子流落到儿童福利院,她不得不住在一间离自己出生地450公里远的住房内。当今英国行政机构的繁琐程序就像一张网,牢牢套住两人。Daniel和Rachel决定尝试相互帮助……
Complete name : I.Daniel.Blake.2016.720p.BluRay.DD5.1.x264-SpaceHD.mkv
Format : Matroska
Format version : Version 4 / Version 2
File size : 6.31GB
Duration : 1 h 40 min
Overall bit rate : 8 993 kb/s
Movie name : I.Daniel.Blake.2016.720p.BluRay.DD5.1.x264-SpaceHD
Encoded date : UTC 2017-03-09 10:18:17
Writing application : mkvmerge v9.8.0 (\ Kuglblids\ ) 64bit
Writing library : libebml v1.3.4 + libmatroska v1.4.5
Video
ID : 1
Format : AVC
Format/Info : Advanced Video Codec
Format profile : [email protected]/*  */
Format settings, CABAC : Yes
Format settings, ReFrames : 9 frames
Codec ID : V_MPEG4/ISO/AVC
Duration : 1 h 40 min
Bit rate : 8 351 kb/s
Width : 1 280 pixels
Height : 692 pixels
Display aspect ratio : 1.85:1
Frame rate mode : Constant
Frame rate : 23.976 (24000/1001) FPS
Color space : YUV
Chroma subsampling : 4:2:0
Bit depth : 8 bits
Scan type : Progressive
Bits/(Pixel*Frame) : 0.393
Stream size : 5.86GB (93%)
Writing library : x264 core 148 r2744 b97ae06
Encoding settings : cabac=1 / ref=9 / deblock=1:-3:-3 / analyse=0x3:0x113 / me=umh / subme=10 / psy=1 / psy_rd=1.07:0.00 / mixed_ref=1 / me_range=24 / chroma_me=1 / trellis=2 / 8x8dct=1 / cqm=1 / deadzone=21,11 / fast_pskip=0 / chroma_qp_offset=-1 / threads=12 / lookahead_threads=2 / sliced_threads=0 / nr=0 / decimate=1 / interlaced=0 / bluray_compat=0 / constrained_intra=0 / bframes=8 / b_pyramid=2 / b_adapt=2 / b_bias=0 / direct=3 / weightb=1 / open_gop=0 / weightp=2 / keyint=230 / keyint_min=23 / scenecut=40 / intra_refresh=0 / rc_lookahead=40 / rc=crf / mbtree=0 / crf=16.4 / qcomp=0.65 / qpmin=10 / qpmax=69 / qpstep=4 / vbv_maxrate=62500 / vbv_bufsize=78125 / crf_max=0.0 / nal_hrd=none / filler=0 / ip_ratio=1.30 / pb_ratio=1.20 / aq=1:0.75
Language : English
Default : Yes
Forced : No
Audio
ID : 2
Format : AC-3
Format/Info : Audio Coding 3
Mode extension : CM (complete main)
Format settings, Endianness : Big
Codec ID : A_AC3
Duration : 1 h 40 min
Bit rate mode : Constant
Bit rate : 640 kb/s
Channel(s) : 6 channels
Channel positions : Front: L C R, Side: L R, LFE
Sampling rate : 48.0 kHz
Frame rate : 31.250 FPS (1536 spf)
Compression mode : Lossy
Stream size : 460 MiB (7%)
Language : English
Default : Yes
Forced : No
Text #1
ID : 3
Format : UTF-8
Codec ID : S_TEXT/UTF8
Codec ID/Info : UTF-8 Plain Text
Duration : 1 h 37 min
Bit rate : 80 b/s
Count of elements : 1480
Stream size : 57.8 KiB (0%)
Language : English
Default : Yes
Forced : No
Text #2
ID : 4
Format : UTF-8
Codec ID : S_TEXT/UTF8
Codec ID/Info : UTF-8 Plain Text
Duration : 1 h 37 min
Bit rate : 88 b/s
Count of elements : 1596
Stream size : 63.2 KiB (0%)
Title : SDH
Language : English
Default : No
Forced : No
Menu
00:00:00.000 : en:Chapter 1
00:07:41.920 : en:Chapter 2
00:17:48.818 : en:Chapter 3
00:26:21.997 : en:Chapter 4
00:36:11.461 : en:Chapter 5
00:43:52.630 : en:Chapter 6
00:50:42.248 : en:Chapter 7
00:59:33.570 : en:Chapter 8
01:08:35.069 : en:Chapter 9
01:18:15.649 : en:Chapter 10
01:28:21.338 : en:Chapter 11
01:38:28.486 : en:Chapter 12

hao8k提示您,点击下方下载按钮立刻开始下载
我是布莱克 I.Daniel.Blake.2016.720p.BluRay.DD5.1.x264-SpaceHD 6.3GB

I.Daniel.Blake.2016.720p.BluRay.DD5.1.x264-SpaceHD.torrent ( 253.46 KB )



遇到问题怎么办?
Hao8k小助手精心为您解答:

蓝光资源该怎么播放?Hao8k精选播放软件汇总
用什么下载Hao8k资源呢?精选下载软件合辑
去看看新手学院,Hao8k小助手带你玩转高清
回复

使用道具 举报

全部回复0 显示全部楼层

声明:您在社区发表的所有信息仅代表用户个人观点,与本网站立场无关,希望各位烧友理性发言,不发表违法国家法律禁止的话题。

您需要登录后才可以回帖 登录 | 立即注册

本版积分规则

开通会员 每日签到 返回顶部 返回列表