开启左侧

[剧情片] 一千零一夜/阿拉伯之夜 Arabian.Nights.1974.1080p.BluRay.x264-CiNEFiLE 7.94GB

Hao8k资源组 发表于 2020-1-11 04:01:00 | 显示全部楼层 |阅读模式

马上注册 Hao8k.cn ,获得更好的体验,让你轻松玩转Hao8k

您需要 登录 才可以下载或查看,没有帐号?立即注册

x
20190801120031.jpg
译  名 一千零一夜 / 阿拉伯之夜 / 帕索里尼生命三部曲之一千零一夜 / 天方夜谭 / 阿拉伯神女 / A Thousand and One Nights / Arabian Nights / Flower of the Arabian Nights
片  名 一千零一夜 Il fiore delle mille e una notte
年  代 1974
国  家 意大利 / 法国
类  别 剧情 / 喜剧 / 情色 / 奇幻
语  言 意大利语
上映日期 1974-06-20
IMDb评分  6.9/10 from 5,400 users
◎◎豆瓣评分 7.3/10 from 3084 users
◎◎片  长 130 分钟 / 155 分钟(戛纳电影节)
导  演 皮埃尔·保罗·帕索里尼
主  演
尼内托·达沃利 Ninetto Davoli
弗兰科·奇蒂 Franco Citti
弗兰科·梅利 Franco Merli
Tessa Bouché
Ines Pellegrini

简  介 

  故事讲述天真的穷小子阿拉丁(尼纳托·达沃力 Ninetto Davoli饰)爱上了一个女奴苏玛洛(伊娜丝·佩莱格里尼 Ines Pellegrini饰),成为她挑选的新主人。苏玛洛带他初尝性爱的快乐,并给他讲书上描述的各种情色故事。不久嫉妒的奴隶主抢走了苏玛洛,阿拉丁四处寻找着她,并在路上听到了旅行者们向他讲述的各自或悲情或浪漫的爱情故事。
  由“后新现实主义时代”导演皮埃尔·保罗·帕索里尼执导的影片《一千零一夜》是帕索里尼“生命三部曲”的最后一部,前两部为《十日谈》和《坎特伯雷故事》。影片以正面肯定的方式对性爱民俗和同性恋加以描述,把阿拉伯民间故事集《一千零一夜》古老而传奇的故事搬上银幕。本片荣获1974年第27届戛纳电影节主竞赛单元-评审团大奖,并入围1974年第27届戛纳电影节主竞赛单元-金棕榈奖。

◎获奖情况 

  第27届戛纳电影节 (1974)
  主竞赛单元 金棕榈奖(提名) 皮埃尔·保罗·帕索里尼
  主竞赛单元 评审团大奖 皮埃尔·保罗·帕索里尼

影片参数


  1. Video
  2. ID                                       : 1
  3. Format                                   : AVC
  4. Format/Info                              : Advanced Video Codec
  5. Format profile                           : High@L4.1
  6. Format settings, CABAC                   : Yes
  7. Format settings, ReFrames                : 4 frames
  8. Codec ID                                 : V_MPEG4/ISO/AVC
  9. Duration                                 : 2h 9mn
  10. Bit rate                                 : 8 237 Kbps
  11. Width                                    : 1 920 pixels
  12. Height                                   : 1 040 pixels
  13. Display aspect ratio                     : 1.85:1
  14. Frame rate mode                          : Constant
  15. Frame rate                               : 23.976 fps
  16. Color space                              : YUV
  17. Chroma subsampling                       : 4:2:0
  18. Bit depth                                : 8 bits
  19. Scan type                                : Progressive
  20. Bits/(Pixel*Frame)                       : 0.172
  21. Stream size                              : 7.32GB (92%)
  22. Writing library                          : x264 core 67 r1129 c109c8e
  23. Encoding settings                        : cabac=1 / ref=4 / deblock=1:0:0 / analyse=0x3:0x133 / me=umh / subme=7 / psy_rd=1.0:0.0 / mixed_ref=1 / me_range=16 / chroma_me=1 / trellis=1 / 8x8dct=1 / cqm=0 / deadzone=21,11 / chroma_qp_offset=-2 / threads=6 / nr=0 / decimate=1 / mbaff=0 / bframes=3 / b_pyramid=1 / b_adapt=1 / b_bias=0 / direct=1 / wpredb=1 / keyint=250 / keyint_min=25 / scenecut=40 / rc=2pass / bitrate=8237 / ratetol=1.0 / qcomp=0.60 / qpmin=10 / qpmax=51 / qpstep=4 / cplxblur=20.0 / qblur=0.5 / ip_ratio=1.40 / pb_ratio=1.30 / aq=1:1.00
  24. Language                                 : English
  25. Default                                  : Yes
  26. Forced                                   : No

  27. Audio #1
  28. ID                                       : 2
  29. Format                                   : AC-3
  30. Format/Info                              : Audio Coding 3
  31. Mode extension                           : CM (complete main)
  32. Format settings, Endianness              : Big
  33. Codec ID                                 : A_AC3
  34. Duration                                 : 2h 9mn
  35. Bit rate mode                            : Constant
  36. Bit rate                                 : 256 Kbps
  37. Channel(s)                               : 2 channels
  38. Channel positions                        : Front: L R
  39. Sampling rate                            : 48.0 KHz
  40. Frame rate                               : 31.250 fps (1536 spf)
  41. Compression mode                         : Lossy
  42. Stream size                              : 238 MiB (3%)
  43. Language                                 : English
  44. Default                                  : Yes
  45. Forced                                   : No

  46. Audio #2
  47. ID                                       : 3
  48. Format                                   : AC-3
  49. Format/Info                              : Audio Coding 3
  50. Mode extension                           : CM (complete main)
  51. Format settings, Endianness              : Big
  52. Codec ID                                 : A_AC3
  53. Duration                                 : 2h 9mn
  54. Bit rate mode                            : Constant
  55. Bit rate                                 : 256 Kbps
  56. Channel(s)                               : 2 channels
  57. Channel positions                        : Front: L R
  58. Sampling rate                            : 48.0 KHz
  59. Frame rate                               : 31.250 fps (1536 spf)
  60. Compression mode                         : Lossy
  61. Stream size                              : 238 MiB (3%)
  62. Language                                 : Italian
  63. Default                                  : No
  64. Forced                                   : No



复制代码

精彩剧照

20190801120031.jpg 20190801120031.jpg 20190801120031.jpg 20190801120031.jpg 20190801120031.jpg 20190801120031.jpg

                                                                                                

hao8k提示您,点击下方下载按钮立刻开始下载
一千零一夜/阿拉伯之夜 Arabian.Nights.1974.1080p.BluRay.x264-CiNEFiLE 7.94GB

Arabian.Nights.1974.1080p.BluRay.x264-CiNEFiLE.torrent ( 80.04 KB )



遇到问题怎么办?
Hao8k小助手精心为您解答:

蓝光资源该怎么播放?Hao8k精选播放软件汇总
用什么下载Hao8k资源呢?精选下载软件合辑
去看看新手学院,Hao8k小助手带你玩转高清
回复

使用道具 举报

全部回复0 显示全部楼层

声明:您在社区发表的所有信息仅代表用户个人观点,与本网站立场无关,希望各位烧友理性发言,不发表违法国家法律禁止的话题。

您需要登录后才可以回帖 登录 | 立即注册

本版积分规则

开通会员 每日签到 返回顶部 返回列表