开启左侧

[剧情片] 最美丽的妻子 The.Most.Beautiful.Wife.1970.1080p.BluRay.x264-SADPANDA 7.94GB

Hao8k资源组 发表于 2020-1-11 03:48:05 | 显示全部楼层 |阅读模式

马上注册 Hao8k.cn ,获得更好的体验,让你轻松玩转Hao8k

您需要 登录 才可以下载或查看,没有帐号?立即注册

x
20190801120031.jpg
译  名 最美丽的妻子
片  名 最美丽的妻子 La moglie più bella
年  代 1970
国  家 意大利
类  别 剧情 / 犯罪
语  言 意大利语
上映日期 1970
IMDb评分  7.2/10 from 369 users
◎◎豆瓣评分 目前无人评价
◎◎片  长 108 分钟
导  演 Damiano Damiani
主  演
Ornella Muti
Alessio Orano
Tano Cimarosa

简  介 

  Based on the story of Franca Villa and Filippo Melodia. In Sicily, as a Mafia boss leaves for prison, he advises Vito, a young man who"s his potential successor, to marry a virtuous and poor woman. Vito"s eye settles on Francesca, only 15, but lovely and self-possessed. Among her virtues are high self worth and forthright speech, so although she falls in love with Vito, she won"t bow down to him. Believing he"s losing face, he has his boys kidnap her and he rapes her. Then, he tells her he"ll still marry her. Instead, she files charges. Her parents, brother, and neighbors refuse to support her. Will she break? Will Vito continue his assaults?

影片参数


  1. Video
  2. ID                                       : 1
  3. Format                                   : AVC
  4. Format/Info                              : Advanced Video Codec
  5. Format profile                           : High@L4.1
  6. Format settings, CABAC                   : Yes
  7. Format settings, ReFrames                : 5 frames
  8. Codec ID                                 : V_MPEG4/ISO/AVC
  9. Duration                                 : 1h 48mn
  10. Bit rate                                 : 9 632 Kbps
  11. Width                                    : 1 920 pixels
  12. Height                                   : 816 pixels
  13. Display aspect ratio                     : 2.35:1
  14. Frame rate mode                          : Constant
  15. Frame rate                               : 23.976 (24000/1001) fps
  16. Color space                              : YUV
  17. Chroma subsampling                       : 4:2:0
  18. Bit depth                                : 8 bits
  19. Scan type                                : Progressive
  20. Bits/(Pixel*Frame)                       : 0.256
  21. Stream size                              : 7.31GB (92%)
  22. Writing library                          : x264 core 148 r2744 b97ae06
  23. Encoding settings                        : cabac=1 / ref=5 / deblock=1:-3:-3 / analyse=0x3:0x113 / me=umh / subme=8 / psy=1 / psy_rd=1.00:0.25 / mixed_ref=1 / me_range=24 / chroma_me=1 / trellis=1 / 8x8dct=1 / cqm=0 / deadzone=21,11 / fast_pskip=1 / chroma_qp_offset=-4 / threads=25 / lookahead_threads=4 / sliced_threads=0 / nr=0 / decimate=1 / interlaced=0 / bluray_compat=0 / constrained_intra=0 / bframes=3 / b_pyramid=2 / b_adapt=1 / b_bias=0 / direct=3 / weightb=1 / open_gop=0 / weightp=2 / keyint=240 / keyint_min=24 / scenecut=40 / intra_refresh=0 / rc_lookahead=50 / rc=2pass / mbtree=1 / bitrate=9632 / ratetol=1.0 / qcomp=0.60 / qpmin=0 / qpmax=69 / qpstep=4 / cplxblur=20.0 / qblur=0.5 / ip_ratio=1.40 / aq=1:0.75
  24. Default                                  : Yes
  25. Forced                                   : No

  26. Audio #1
  27. ID                                       : 2
  28. Format                                   : FLAC
  29. Format/Info                              : Free Lossless Audio Codec
  30. Codec ID                                 : A_FLAC
  31. Duration                                 : 1h 48mn
  32. Bit rate mode                            : Variable
  33. Bit rate                                 : 428 Kbps
  34. Channel(s)                               : 2 channels
  35. Channel positions                        : Front: L R
  36. Sampling rate                            : 48.0 KHz
  37. Frame rate                               : 11.719 fps (4096 spf)
  38. Bit depth                                : 16 bits
  39. Stream size                              : 333 MiB (4%)
  40. Writing library                          : libFLAC 1.2.1 (UTC 2007-09-17)
  41. Language                                 : Italian
  42. Default                                  : Yes
  43. Forced                                   : No

  44. Audio #2
  45. ID                                       : 3
  46. Format                                   : FLAC
  47. Format/Info                              : Free Lossless Audio Codec
  48. Codec ID                                 : A_FLAC
  49. Duration                                 : 1h 48mn
  50. Bit rate mode                            : Variable
  51. Bit rate                                 : 397 Kbps
  52. Channel(s)                               : 2 channels
  53. Channel positions                        : Front: L R
  54. Sampling rate                            : 48.0 KHz
  55. Frame rate                               : 11.719 fps (4096 spf)
  56. Bit depth                                : 16 bits
  57. Stream size                              : 308 MiB (4%)
  58. Writing library                          : libFLAC 1.2.1 (UTC 2007-09-17)
  59. Language                                 : English
  60. Default                                  : No
  61. Forced                                   : No

复制代码

精彩剧照

20190801120031.jpg

                                                                                                

hao8k提示您,点击下方下载按钮立刻开始下载
最美丽的妻子 The.Most.Beautiful.Wife.1970.1080p.BluRay.x264-SADPANDA 7.94GB

The.Most.Beautiful.Wife.1970.1080p.BluRay.x264-SADPANDA.torrent ( 80.03 KB )



遇到问题怎么办?
Hao8k小助手精心为您解答:

蓝光资源该怎么播放?Hao8k精选播放软件汇总
用什么下载Hao8k资源呢?精选下载软件合辑
去看看新手学院,Hao8k小助手带你玩转高清
回复

使用道具 举报

全部回复0 显示全部楼层

声明:您在社区发表的所有信息仅代表用户个人观点,与本网站立场无关,希望各位烧友理性发言,不发表违法国家法律禁止的话题。

您需要登录后才可以回帖 登录 | 立即注册

本版积分规则

开通会员 每日签到 返回顶部 返回列表