开启左侧

[动画片] 龙珠Z特别篇:绝望的反抗 Dragon.Ball.Z.The.History.Of.Trunks.1993.1080p.BluRay.x264-AERO 4.37GB

Hao8k资源组 发表于 2020-1-11 01:18:35 | 显示全部楼层 |阅读模式

马上注册 Hao8k.cn ,获得更好的体验,让你轻松玩转Hao8k

您需要 登录 才可以下载或查看,没有帐号?立即注册

x
20190801120031.jpg
译  名 龙珠Z特别篇:绝望的反抗!! 仅存的超战士悟饭和特兰克斯 / Dragon Ball Z: The History of Trunks
片  名 龙珠Z特别篇:绝望的反抗!! 仅存的超战士悟饭和特兰克斯 ドラゴンボールZ 絶望への反抗!!残された超戦士?悟飯とトランクス
年  代 1993
国  家 日本
类  别 动画
语  言 日语
上映日期 1993-02-24
IMDb评分  8.0/10 from 3,382 users
◎◎豆瓣评分 8.0/10 from 636 users
◎◎片  长 47 min
导  演 Ueda
主  演
野泽雅子 Masako Nozawa

简  介 

  在另一个未来,孙悟空因心脏病去世,人造人17号和18号危害人间,13年里将地球变成地狱。龙珠战士相继牺牲,只有孙悟饭侥幸逃生,但只剩一只手臂。在他的培养下,特兰克斯成为新一代的龙珠战士。
  终于有一天人造人杀到二人居住的城市,悟饭独自应战,最终被强大的对手杀害。悲伤愤怒的特兰克斯在那一刻终于成为超级赛亚人,但始终不是人造人的对手,更险些丧命。布尔玛为了拯救人类,潜心发明时光机,让特兰克斯回到过去,希望带回孙悟空拯救未来的地球……

影片参数


  1. Video
  2. ID                                       : 1
  3. Format                                   : AVC
  4. Format/Info                              : Advanced Video Codec
  5. Format profile                           : High@L4.1
  6. Format settings, CABAC                   : Yes
  7. Format settings, ReFrames                : 4 frames
  8. Codec ID                                 : V_MPEG4/ISO/AVC
  9. Duration                                 : 47mn 55s
  10. Bit rate                                 : 11.8 Mbps
  11. Width                                    : 1 920 pixels
  12. Height                                   : 1 080 pixels
  13. Display aspect ratio                     : 16:9
  14. Frame rate mode                          : Constant
  15. Frame rate                               : 23.976 (24000/1001) fps
  16. Color space                              : YUV
  17. Chroma subsampling                       : 4:2:0
  18. Bit depth                                : 8 bits
  19. Scan type                                : Progressive
  20. Bits/(Pixel*Frame)                       : 0.237
  21. Stream size                              : 3.86GB (88%)
  22. Writing library                          : x264 core 98 r1649 c54c47d
  23. Encoding settings                        : cabac=1 / ref=4 / deblock=1:0:0 / analyse=0x3:0x133 / me=umh / subme=7 / psy=1 / psy_rd=1.00:0.00 / mixed_ref=1 / me_range=16 / chroma_me=1 / trellis=1 / 8x8dct=1 / cqm=0 / deadzone=21,11 / fast_pskip=0 / chroma_qp_offset=-2 / threads=6 / sliced_threads=0 / nr=0 / decimate=1 / interlaced=0 / constrained_intra=0 / bframes=3 / b_pyramid=2 / b_adapt=1 / b_bias=0 / direct=1 / weightb=1 / weightp=2 / keyint=250 / keyint_min=25 / scenecut=40 / intra_refresh=0 / rc_lookahead=40 / rc=2pass / mbtree=1 / bitrate=11785 / ratetol=1.0 / qcomp=0.60 / qpmin=10 / qpmax=51 / qpstep=4 / cplxblur=20.0 / qblur=0.5 / ip_ratio=1.40 / aq=1:1.00
  24. Language                                 : English
  25. Default                                  : Yes
  26. Forced                                   : No

  27. Audio #1
  28. ID                                       : 2
  29. Format                                   : AC-3
  30. Format/Info                              : Audio Coding 3
  31. Mode extension                           : CM (complete main)
  32. Format settings, Endianness              : Big
  33. Codec ID                                 : A_AC3
  34. Duration                                 : 47mn 55s
  35. Bit rate mode                            : Constant
  36. Bit rate                                 : 640 Kbps
  37. Channel(s)                               : 6 channels
  38. Channel positions                        : Front: L C R, Side: L R, LFE
  39. Sampling rate                            : 48.0 KHz
  40. Frame rate                               : 31.250 fps (1536 spf)
  41. Compression mode                         : Lossy
  42. Stream size                              : 219 MiB (5%)
  43. Language                                 : English
  44. Default                                  : Yes
  45. Forced                                   : No

  46. Audio #2
  47. ID                                       : 3
  48. Format                                   : AC-3
  49. Format/Info                              : Audio Coding 3
  50. Mode extension                           : CM (complete main)
  51. Format settings, Endianness              : Big
  52. Codec ID                                 : A_AC3
  53. Duration                                 : 47mn 55s
  54. Bit rate mode                            : Constant
  55. Bit rate                                 : 640 Kbps
  56. Channel(s)                               : 1 channel
  57. Channel positions                        : Front: C
  58. Sampling rate                            : 48.0 KHz
  59. Frame rate                               : 31.250 fps (1536 spf)
  60. Compression mode                         : Lossy
  61. Stream size                              : 219 MiB (5%)
  62. Language                                 : Japanese
  63. Default                                  : No
  64. Forced                                   : No



复制代码

精彩剧照

20190801120031.jpg 20190801120031.jpg 20190801120031.jpg 20190801120031.jpg 20190801120031.jpg 20190801120031.jpg

hao8k提示您,点击下方下载按钮立刻开始下载
龙珠Z特别篇:绝望的反抗 Dragon.Ball.Z.The.History.Of.Trunks.1993.1080p.BluRay.x264-AERO 4.37GB

Dragon.Ball.Z.The.History.Of.Trunks.1993.1080p.BluRay.x264-AERO.torrent ( 88.1 KB )



遇到问题怎么办?
Hao8k小助手精心为您解答:

蓝光资源该怎么播放?Hao8k精选播放软件汇总
用什么下载Hao8k资源呢?精选下载软件合辑
去看看新手学院,Hao8k小助手带你玩转高清
回复

使用道具 举报

全部回复0 显示全部楼层

声明:您在社区发表的所有信息仅代表用户个人观点,与本网站立场无关,希望各位烧友理性发言,不发表违法国家法律禁止的话题。

您需要登录后才可以回帖 登录 | 立即注册

本版积分规则

开通会员 每日签到 返回顶部 返回列表