开启左侧

[动画片] 东京教父.Tokyo Godfathers.2003.JP.BluRay.1920x1060p.x264.AAC-KOOK.[中英字幕]4.98G

Hao8k资源组 发表于 2020-1-11 01:11:12 | 显示全部楼层 |阅读模式

马上注册 Hao8k.cn ,获得更好的体验,让你轻松玩转Hao8k

您需要 登录 才可以下载或查看,没有帐号?立即注册

x
20190801120031.jpg
※※※※※※※ 影片信息 ※※※※※※※
◎片   名 東京ゴッドファーザーズ
◎译   名 东京教父/Tokyo Godfathers
◎年   代 2003
◎国   家 日本
◎类   别 剧情 / 喜剧 / 动画 / 冒险
◎语   言 日语
◎上映日 期 2003-11-08
◎字   幕 简体字幕/繁体字幕/英文字幕
◎IMDB评分   
◎视频尺 寸  1920x1080p
◎片   长 92 mins
◎导   演 今敏
◎主   演 江守彻 / 冈本绫 / 梅垣义明 / 饭塚昭三 / 石丸博也

简  介
  圣诞夜,退役自行车选手Gin,性倒错者花,离家出走的少女美由纪三人在东京的雪夜中无所事事。这是,他们发现垃圾堆中有一位哭泣的弃婴。孩子的襁褓中仅有一个酒吧的名片与照片。婴儿的父母身份成了谜团。
  花想收留孩子,并将孩子取名清子。但另外2人表示反对。于是三人开始了寻找清子 的父母的旅程。圣诞夜幸福的气氛,伴随的却是怀中清子的哭泣。无家可归的三个人,开始为同样无家可归的清子找寻属于她的家。这一队流浪者,在一夜经历了诸多奇妙的事件。他们能找到清子的父母吗?
片源:2003 - Tokyo Godfathers 1080p ESP JAP SUBS ESP ENG BY NEMO.mkv
General
Unique ID                      : 248037731650151025684389396527053071686 (0xBA9A54584BCB6CE29DF9A10FCB94E546)
Format                         : Matroska
Format version                 : Version 4 / Version 2
File size                      : 4.98GB
Duration                       : 1 h 31 min
Overall bit rate mode          : Variable
Overall bit rate               : 7 777 kb/s
Movie name                     : 2003 - Tokyo Godfathers 1080p ESP JAP SUBS ESP ENG BY NEMO
Encoded date                   : UTC 2016-12-14 13:56:18
Writing application            : mkvmerge v9.4.2 ( So High ) 64bit
Writing library                : libebml v1.3.4 + libmatroska v1.4.5
Attachments                    : Tokyo_Godfathers_(Movie_Poster).jpg / NEMO.txt / ufonts.com_gill-sans.ttf / ufonts.com_gillsans-italic.ttf / sylfaen.ttf / WendelinNormal.ttf / framd.ttf
Video
ID                             : 1
Format                         : AVC
Format/Info                    : Advanced Video Codec
Format profile                 : [email protected]/*  */
Format settings, CABAC         : Yes
Format settings, ReFrames      : 3 frames
Codec ID                       : V_MPEG4/ISO/AVC
Duration                       : 1 h 31 min
Bit rate mode                  : Variable
Bit rate                       : 6 865 kb/s
Maximum bit rate               : 40.0 Mb/s
Width                          : 1 920 pixels
Height                         : 1 060 pixels
Display aspect ratio           : 16:9
Frame rate mode                : Constant
Frame rate                     : 23.976 (24000/1001) FPS
Color space                    : YUV
Chroma subsampling             : 4:2:0
Bit depth                      : 8 bits
Scan type                      : Progressive
Bits/(Pixel*Frame)             : 0.141
Stream size                    : 4.40GB (88%)
Title                          : BY NEMO
Writing library                : x264 core 129 r2230 1cffe9f
Encoding settings              : cabac=1 / ref=3 / deblock=1:0:0 /
Language                       : Japanese
Default                        : Yes
Forced                         : No
Audio
ID                             : 2
Format                         : AAC
Format/Info                    : Advanced Audio Codec
Format profile                 : LC
Codec ID                       : A_AAC
Duration                       : 1 h 31 min
Bit rate                       : 907 kb/s
Channel(s)                     : 6 channels
Channel positions              : Front: L C R, Side: L R, LFE
Sampling rate                  : 96.0 kHz
Frame rate                     : 93.750 FPS (1024 spf)
Compression mode               : Lossy
Delay relative to video        : 5 ms
Stream size                    : 595 MiB (12%)
Title                          : Japanese AAC
Language                       : Japanese
Default                        : No
Forced                         : No
Text #1
ID                             : 3
Format                         : ASS
Codec ID                       : S_TEXT/ASS
Codec ID/Info                  : Advanced Sub Station Alpha
Duration                       : 1 h 26 min
Bit rate                       : 128 b/s
Count of elements              : 1264
Compression mode               : Lossless
Stream size                    : 81.4 KiB (0%)
Title                          : English
Language                       : English
Default                        : No
Forced                         : No
Text #2
ID                             : 4
Format                         : ASS
Codec ID                       : S_TEXT/ASS
Codec ID/Info                  : Advanced Sub Station Alpha
Duration                       : 1 h 30 min
Bit rate                       : 164 b/s
Count of elements              : 1270
Compression mode               : Lossless
Stream size                    : 110 KiB (0%)
Title                          : 简体字幕
Language                       : Chinese
Default                        : Yes
Forced                         : No
Text #3
ID                             : 5
Format                         : ASS
Codec ID                       : S_TEXT/ASS
Codec ID/Info                  : Advanced Sub Station Alpha
Duration                       : 1 h 30 min
Bit rate                       : 164 b/s
Count of elements              : 1270
Compression mode               : Lossless
Stream size                    : 110 KiB (0%)
Title                          : 繁体字幕
Language                       : Chinese
Default                        : No
Forced                         : No
20190801120031.jpg                                                                                                                                                                                                         

                                                                                                                                                  

hao8k提示您,点击下方下载按钮立刻开始下载
东京教父.Tokyo Godfathers.2003.JP.BluRay.1920x1060p.x264.AAC-KOOK.[中英字幕]4.98G

东京教父.Tokyo Godfathers.2003.JP.BluRay.1920x1060p.x264.AAC-KOOK.[中英字幕].tor.torrent ( 110.38 KB )



遇到问题怎么办?
Hao8k小助手精心为您解答:

蓝光资源该怎么播放?Hao8k精选播放软件汇总
用什么下载Hao8k资源呢?精选下载软件合辑
去看看新手学院,Hao8k小助手带你玩转高清
回复

使用道具 举报

全部回复0 显示全部楼层

声明:您在社区发表的所有信息仅代表用户个人观点,与本网站立场无关,希望各位烧友理性发言,不发表违法国家法律禁止的话题。

您需要登录后才可以回帖 登录 | 立即注册

本版积分规则

开通会员 每日签到 返回顶部 返回列表