开启左侧

[动画片] 小玩具.Small Fry.2011.US.BluRay.1920x1080p.x264.AC3-KOOK.[英语中字]389M

Hao8k资源组 发表于 2020-1-11 00:44:56 | 显示全部楼层 |阅读模式

马上注册 Hao8k.cn ,获得更好的体验,让你轻松玩转Hao8k

您需要 登录 才可以下载或查看,没有帐号?立即注册

x
20190801120031.jpg
※※※※※※※ 影片信息 ※※※※※※※
◎片   名 Small Fry
◎译   名 小玩具/反斗奇兵迷你Show:薯假包换 / Toy Story Toons
◎年   代 2011
◎国   家 美国
◎类   别 动画 / 短片
◎语   言 英语
◎上映日 期 2011-11-23
◎字   幕 简体字幕/繁体字幕
◎IMDB评分   
◎视频尺 寸  1920x1080p
◎片   长 7 mins
◎导   演 导演: 安格斯·麦克莱恩
◎主   演 主演: 罗里·艾伦 / 卡洛斯·阿拉斯拉奇 / 蒂姆·艾伦 / 裘蒂·班森 / 鲍伯·伯根

简  介
   这一天,妈妈带着邦妮(艾米丽·哈恩 Emily Hahn 配音)去一家快餐店用餐,虽然邦妮很想要一个附赠的小玩具,可是因为只买了一包小薯条,因此愿望落空。童心盎然的小女孩带着恐龙雷克斯(沃伦斯·肖恩 Wallace Shawn 配音)和巴斯光年一同外出,她和这两个好朋友 一起扎入快餐店的淘气宝海洋球中玩耍。与此同时,柜台上陈列的玩具中,有一个巴斯光年的迷你玩偶,他耐不住寂寞偷偷溜了出去,并趁乱绑架巴斯光年,自己取而代之来到邦妮家中。这边厢不可一世的迷你巴斯趾高气扬,另一边真正的巴斯光年则设法逃出快餐店,却遇到了一群被遗忘的玩具……
  本片为迪斯尼动画长片《布偶大电影》的附赠短片。
片源:Small.Fry.2011.BluRay.1080p.AC3.x264-CHD.mkv
General
Unique ID                      : 181881948556641296806171853624084059664 (0x88D530694EDCD0CF9D9B20D757BCD610)
Format                         : Matroska
Format version                 : Version 4 / Version 2
File size                      : 390 MiB
Duration                       : 7 min
Overall bit rate               : 7 652 kb/s
Encoded date                   : UTC 2016-12-12 09:03:05
Writing application            : mkvmerge v9.4.2 ( So High ) 64bit
Writing library                : libebml v1.3.4 + libmatroska v1.4.5
Video
ID                             : 1
Format                         : AVC
Format/Info                    : Advanced Video Codec
Format profile                 : [email protected]/*  */
Format settings, CABAC         : Yes
Format settings, ReFrames      : 4 frames
Codec ID                       : V_MPEG4/ISO/AVC
Duration                       : 7 min
Bit rate                       : 7 000 kb/s
Width                          : 1 920 pixels
Height                         : 1 080 pixels
Display aspect ratio           : 16:9
Frame rate mode                : Constant
Frame rate                     : 23.976 FPS
Color space                    : YUV
Chroma subsampling             : 4:2:0
Bit depth                      : 8 bits
Scan type                      : Progressive
Bits/(Pixel*Frame)             : 0.141
Stream size                    : 357 MiB (92%)
Writing library                : x264 core 128 r2216 198a7ea
Encoding settings              : cabac=1 / ref=4 / deblock=1:-3:-3 /
Language                       : English
Default                        : Yes
Forced                         : No
Audio
ID                             : 2
Format                         : AC-3
Format/Info                    : Audio Coding 3
Mode extension                 : CM (complete main)
Format settings, Endianness    : Big
Codec ID                       : A_AC3
Duration                       : 7 min
Bit rate mode                  : Constant
Bit rate                       : 640 kb/s
Channel(s)                     : 6 channels
Channel positions              : Front: L C R, Side: L R, LFE
Sampling rate                  : 48.0 kHz
Frame rate                     : 31.250 FPS (1536 spf)
Compression mode               : Lossy
Stream size                    : 32.6 MiB (8%)
Language                       : English
Default                        : Yes
Forced                         : No
Text #1
ID                             : 3
Format                         : ASS
Codec ID                       : S_TEXT/ASS
Codec ID/Info                  : Advanced Sub Station Alpha
Duration                       : 7 min
Bit rate                       : 273 b/s
Count of elements              : 141
Compression mode               : Lossless
Stream size                    : 14.3 KiB (0%)
Title                          : 简体字幕
Language                       : Chinese
Default                        : Yes
Forced                         : No
Text #2
ID                             : 4
Format                         : ASS
Codec ID                       : S_TEXT/ASS
Codec ID/Info                  : Advanced Sub Station Alpha
Duration                       : 7 min
Bit rate                       : 273 b/s
Count of elements              : 141
Compression mode               : Lossless
Stream size                    : 14.3 KiB (0%)
Title                          : 繁体字幕
Language                       : Chinese
Default                        : No
Forced                         : No
                                                                                                                                                                                                        

                                                                                                                                                  

hao8k提示您,点击下方下载按钮立刻开始下载
小玩具.Small Fry.2011.US.BluRay.1920x1080p.x264.AC3-KOOK.[英语中字]389M

小玩具.Small Fry.2011.US.BluRay.1920x1080p.x264.AC3-KOOK.[英语中字].torrent ( 39.17 KB )



遇到问题怎么办?
Hao8k小助手精心为您解答:

蓝光资源该怎么播放?Hao8k精选播放软件汇总
用什么下载Hao8k资源呢?精选下载软件合辑
去看看新手学院,Hao8k小助手带你玩转高清
回复

使用道具 举报

全部回复0 显示全部楼层

声明:您在社区发表的所有信息仅代表用户个人观点,与本网站立场无关,希望各位烧友理性发言,不发表违法国家法律禁止的话题。

您需要登录后才可以回帖 登录 | 立即注册

本版积分规则

开通会员 每日签到 返回顶部 返回列表