开启左侧

[喜剧片] 重庆森林.Chungking Express.1994.HK.CC.#453.BluRay.1800x1080p..x264.DTS.3Audiao

Hao8k资源组 发表于 2020-1-11 00:41:39 | 显示全部楼层 |阅读模式

马上注册 Hao8k.cn ,获得更好的体验,让你轻松玩转Hao8k

您需要 登录 才可以下载或查看,没有帐号?立即注册

x
20190801120031.jpg
※※※※※※※ 影片信息 ※※※※※※※
片  名 Chungking Express
译  名 重庆森林
年  代 1994
国  家 中国香港
类  别 喜剧/剧情/神秘/爱情
语  言 粤语/普通话
片  长 103分钟
◎IMDB评分  8.0/10 (21,955 votes)  
◎IMDB链接  https://www.imdb.com/title/tt0109424/
导  演 王家卫 Kar Wai Wong
主  演 林青霞 Brigitte Lin
      梁朝伟 Tony Leung Chiu Wai
      王 菲 Jingwen Wang
      金城武 Takeshi Kaneshiro
      周嘉玲 Valerie Chow
      陈锦泉 Chen Jinquan
      关莉娜 Lee-na Kwan
      黄志明 Huang Zhiming
      良 辰 Liang Zhen
      左颂升 Zuo Songshen
◎剧情简介
      警察阿武处于失恋综合症中,一日在街头与一金发女子擦肩而过,金发女子是一名杀手。56小时后,两人在酒吧偶遇,并相处一晚。在阿武预感情感过期的早上,收到了金发女子的生日祝福:“这一刻是永远不会过期的。如果要加一个期限的话,我想是:一万年。”第二天,人们发现金发女子被人打死在楼里。阿武经常光顾的快餐店来了新的女招应阿菲,她爱上了警察663。663的女友离开了他,而阿菲拆了663女友留在快餐店给他的信,拿了663家的钥匙,趁663不在时去他家悄悄地改变663原来的生活。终于有一天被663撞见,663忽然感到感情的回归。当晚,663约阿菲见面,却得知阿菲去了美国,说一年后见面。一年后,成为空姐的阿菲回来了,而此时663已不再是警察,而成为快餐店老板。两人相见,663说跟阿菲去哪都可以……
◎幕后制作
      追寻和拒绝,成为了王家卫影片所关注的母题。而两个并无关联的故事,在似乎断裂却又机巧的叙事中,以重新结构起的时间和空间,描绘出一个纯属感官、纯属符号、纯属个人的华丽城市。而其影片中的人物、分散的结构和对人生的洞察,形成了一个摇曳多姿而又自成一统的特色。王家卫曾就该片说:“我并不是对都市人的失落、错爱等问题有特别的兴趣,因为这种情况越来越普遍。我只是想把一些现实的事情拍出来,拍点都市气息。”在《重庆森林》中,他旨在表现躁动的世界里的无常人生。影片绮丽迷乱的拍摄风格与耐人寻味的对白深受都市人的喜爱,从而使王家卫的影片成为一种独特的文化,有自己特定的受众群体。此外,虽然王家卫的影片一向以没有剧本而使人称奇,对白却是直指人心,相当的耐人回味,因而成为经典。
片源:Chungking.Express.1994.Criterion.Collection.1080p.BluRay.x264.DTS-WiKi.mkv
General
Unique ID                      : 228628407721652904695992536677027377029 (0xAC003ACACAEC364B85822E42263F6F85)
Format                         : Matroska
Format version                 : Version 4 / Version 2
File size                      : 12.0GB
Duration                       : 1 h 42 min
Overall bit rate               : 16.7 Mb/s
Movie name                     : YiFan @ WiKi
Encoded date                   : UTC 2016-12-14 10:34:19
Writing application            : mkvmerge v9.4.2 ( So High ) 64bit
Writing library                : libebml v1.3.4 + libmatroska v1.4.5
Video
ID                             : 1
Format                         : AVC
Format/Info                    : Advanced Video Codec
Format profile                 : [email protected]/*  */
Format settings, CABAC         : Yes
Format settings, ReFrames      : 4 frames
Codec ID                       : V_MPEG4/ISO/AVC
Duration                       : 1 h 42 min
Bit rate                       : 14.5 Mb/s
Width                          : 1 800 pixels
Height                         : 1 080 pixels
Display aspect ratio           : 5:3
Frame rate mode                : Constant
Frame rate                     : 23.976 (24000/1001) FPS
Color space                    : YUV
Chroma subsampling             : 4:2:0
Bit depth                      : 8 bits
Scan type                      : Progressive
Bits/(Pixel*Frame)             : 0.311
Stream size                    : 10.4GB (87%)
Writing library                : x264 core 122 r2184 5c85e0a
Encoding settings              : cabac=1 / ref=4 / deblock=1:-3:-3 /
Language                       : English
Default                        : Yes
Forced                         : No
Audio #1
ID                             : 2
Format                         : DTS
Format/Info                    : Digital Theater Systems
Mode                           : 16
Format settings, Endianness    : Big
Codec ID                       : A_DTS
Duration                       : 1 h 42 min
Bit rate mode                  : Constant
Bit rate                       : 1 509 kb/s
Channel(s)                     : 6 channels
Channel positions              : Front: L C R, Side: L R, LFE
Sampling rate                  : 48.0 kHz
Frame rate                     : 93.750 FPS (512 spf)
Bit depth                      : 24 bits
Compression mode               : Lossy
Stream size                    : 1.08GB (9%)
Title                          : 粤语
Language                       : Chinese
Default                        : Yes
Forced                         : No
Audio #2
ID                             : 3
Format                         : AC-3
Format/Info                    : Audio Coding 3
Mode extension                 : CM (complete main)
Format settings, Endianness    : Big
Codec ID                       : A_AC3
Duration                       : 1 h 42 min
Bit rate mode                  : Constant
Bit rate                       : 640 kb/s
Channel(s)                     : 6 channels
Channel positions              : Front: L C R, Side: L R, LFE
Sampling rate                  : 48.0 kHz
Frame rate                     : 31.250 FPS (1536 spf)
Compression mode               : Lossy
Stream size                    : 471 MiB (4%)
Title                          : 国语
Language                       : Chinese
Default                        : No
Forced                         : No
Audio #3
ID                             : 4
Format                         : AAC
Format/Info                    : Advanced Audio Codec
Format profile                 : HE-AAC / LC
Codec ID                       : A_AAC
Duration                       : 1 h 42 min
Bit rate                       : 60.9 kb/s
Channel(s)                     : 2 channels
Channel positions              : Front: L R
Sampling rate                  : 48.0 kHz / 24.0 kHz
Frame rate                     : 23.438 FPS (1024 spf)
Compression mode               : Lossy
Stream size                    : 44.8 MiB (0%)
Title                          : 评论音轨
Language                       : English
Default                        : No
Forced                         : No
Text #1
ID                             : 5
Format                         : ASS
Codec ID                       : S_TEXT/ASS
Codec ID/Info                  : Advanced Sub Station Alpha
Duration                       : 1 h 40 min
Bit rate                       : 97 b/s
Count of elements              : 720
Compression mode               : Lossless
Stream size                    : 71.4 KiB (0%)
Title                          : 简体字幕
Language                       : Chinese
Default                        : Yes
Forced                         : No
Text #2
ID                             : 6
Format                         : ASS
Codec ID                       : S_TEXT/ASS
Codec ID/Info                  : Advanced Sub Station Alpha
Duration                       : 1 h 40 min
Bit rate                       : 97 b/s
Count of elements              : 720
Compression mode               : Lossless
Stream size                    : 71.4 KiB (0%)
Title                          : 繁体字幕
Language                       : Chinese
Default                        : No
Forced                         : No
精彩剧照

20190801120031.jpg
                                                                                                                                                                                                        

                                                                                                                                                  

hao8k提示您,点击下方下载按钮立刻开始下载
重庆森林.Chungking Express.1994.HK.CC.#453.BluRay.1800x1080p..x264.DTS.3Audiao

重庆森林.Chungking Express.1994.HK.CC.#453.BluRay.1800x1080p..x264.DTS.3Audiaos-.torrent ( 130.88 KB )



遇到问题怎么办?
Hao8k小助手精心为您解答:

蓝光资源该怎么播放?Hao8k精选播放软件汇总
用什么下载Hao8k资源呢?精选下载软件合辑
去看看新手学院,Hao8k小助手带你玩转高清
回复

使用道具 举报

全部回复0 显示全部楼层

声明:您在社区发表的所有信息仅代表用户个人观点,与本网站立场无关,希望各位烧友理性发言,不发表违法国家法律禁止的话题。

您需要登录后才可以回帖 登录 | 立即注册

本版积分规则

开通会员 每日签到 返回顶部 返回列表