开启左侧

[剧情片] 性、谎言和录像带.Sex, Lies, and Videotape.1989.US.BluRay.1920x1040p.x264.AC3-KOOK.[中英双字]

Hao8k资源组 发表于 2020-1-10 23:29:55 | 显示全部楼层 |阅读模式

马上注册 Hao8k.cn ,获得更好的体验,让你轻松玩转Hao8k

您需要 登录 才可以下载或查看,没有帐号?立即注册

x
20190801120031.jpg
※※※※※※※ 影片信息 ※※※※※※※
◎片   名 Sex, Lies, and Videotape
◎译   名 性、谎言和录像带 / 性,谎言,录影带 / 性,谎言,录像带 / 性感的谎言
◎年   代 1989
◎国   家 美国
◎类   别 剧情 / 情色
◎语   言 英语
◎上映日 期 1989-08-18
◎字   幕 中英双字/简体字幕/繁体字幕/英文字幕
◎IMDB 评分  7.2/10 from 39254 users
◎豆瓣 评分  7.6/10 from 24775 users
◎视频尺 寸  1920x1040p
◎片   长 1.40.00
◎导   演 史蒂文·索德伯格
◎编     剧  史蒂文·索德伯格
◎主   演 安迪·麦克道威尔 / 詹姆斯·斯派德 / 彼得·盖勒 / 劳拉·桑·吉亚科莫

简  介
  格雷厄姆(詹姆斯?斯派德 James Spader 饰)有一个特殊的癖好,就是为各种各样的女人录影,这些女人在他的摄像机面前都毫不遮掩地谈论自己的性经验和其中细节。当格雷厄姆回到阔别多年的家乡时,他除了一辆汽车和这些录像带,一无所有。所以他只能暂时借住在同学约翰家。
  约翰(彼得?盖勒 Peter Gallagher 饰)是一名成功人士,他和妻子安(安迪?麦克道威尔 Andie MacDowell 饰)的妹妹辛西娅一直都在偷情,对妻子总是爱理不理。安陪着格雷厄姆去找租住的房子时,两人在餐厅进行了一次关于性的长谈,安坦言自己并不怎么重视性生活,而格雷厄姆则道出了自己的秘密:他性无能。
  安偶然发现了格雷厄姆为各色女人拍的录影带,因丈夫冷淡而内心苦闷的她决定也来录影。
第62届奥斯卡金像奖  (1990)
最佳原创剧本(提名) 史蒂文·索德伯格
第42届戛纳电影节  (1989)
主竞赛单元 金棕榈奖 史蒂文·索德伯格
主竞赛单元 最佳男演员 詹姆斯·斯派德
费比西奖 史蒂文·索德伯格
※※※※※※※ 参数信息 ※※※※※※※
General
Unique ID                      : 239279151514949173542570809083048526264 (0xB4037D010898609886845F1B728481B8)
Format                         : Matroska
Format version                 : Version 4 / Version 2
File size                      : 7.96GB
Duration                       : 1 h 40 min
Overall bit rate               : 11.4 Mb/s
Encoded date                   : UTC 2017-03-25 11:02:20
Writing application            : mkvmerge v9.4.2 ( So High ) 64bit
Writing library                : libebml v1.3.4 + libmatroska v1.4.5
Attachments                    : STKAITI.TTF / 正式海报1.jpg
Video
ID                             : 1
Format                         : AVC
Format/Info                    : Advanced Video Codec
Format profile                 : [email protected]/*  */
Format settings, CABAC         : Yes
Format settings, ReFrames      : 4 frames
Codec ID                       : V_MPEG4/ISO/AVC
Duration                       : 1 h 39 min
Bit rate                       : 10.7 Mb/s
Width                          : 1 920 pixels
Height                         : 1 040 pixels
Display aspect ratio           : 1.85:1
Frame rate mode                : Constant
Frame rate                     : 23.976 (24000/1001) FPS
Color space                    : YUV
Chroma subsampling             : 4:2:0
Bit depth                      : 8 bits
Scan type                      : Progressive
Bits/(Pixel*Frame)             : 0.224
Stream size                    : 7.50GB (94%)
Writing library                : x264 core 77 r1294 813fe72
Encoding settings              : cabac=1 / ref=4 / deblock=1:-1:-1 / analyse=0x3:0x113 / me=umh / subme=7 / psy=1 / psy_rd=1.0:0.0 / mixed_ref=1 / me_range=16 / chroma_me=1 / trellis=2 / 8x8dct=1 / cqm=0 / deadzone=21,11 / chroma_qp_offset=-2 / threads=6 / nr=0 / decimate=1 / mbaff=0 / constrained_intra=0 / bframes=3 / b_pyramid=0 / b_adapt=2 / b_bias=0 / direct=3 / wpredb=1 / keyint=250 / keyint_min=25 / scenecut=40 / rc_lookahead=40 / rc=2pass / mbtree=1 / bitrate=10737 / ratetol=1.0 / qcomp=0.60 / qpmin=10 / qpmax=51 / qpstep=4 / cplxblur=20.0 / qblur=0.5 / vbv_maxrate=50000 / vbv_bufsize=50000 / ip_ratio=1.40 / aq=1:1.00
Language                       : English
Default                        : Yes
Forced                         : No
Audio
ID                             : 2
Format                         : AC-3
Format/Info                    : Audio Coding 3
Mode extension                 : CM (complete main)
Format settings, Endianness    : Big
Codec ID                       : A_AC3
Duration                       : 1 h 40 min
Bit rate mode                  : Constant
Bit rate                       : 640 kb/s
Channel(s)                     : 6 channels
Channel positions              : Front: L C R, Side: L R, LFE
Sampling rate                  : 48.0 kHz
Frame rate                     : 31.250 FPS (1536 spf)
Compression mode               : Lossy
Stream size                    : 458 MiB (6%)
Language                       : English
Default                        : Yes
Forced                         : No
Text #1
ID                             : 3
Format                         : ASS
Codec ID                       : S_TEXT/ASS
Codec ID/Info                  : Advanced Sub Station Alpha
Duration                       : 1 h 38 min
Bit rate                       : 335 b/s
Count of elements              : 1299
Compression mode               : Lossless
Stream size                    : 243 KiB (0%)
Title                          : 中英字幕
Language                       : Chinese
Default                        : Yes
Forced                         : No
Text #2
ID                             : 4
Format                         : ASS
Codec ID                       : S_TEXT/ASS
Codec ID/Info                  : Advanced Sub Station Alpha
Duration                       : 1 h 38 min
Bit rate                       : 196 b/s
Count of elements              : 1299
Compression mode               : Lossless
Stream size                    : 142 KiB (0%)
Title                          : 简体字幕
Language                       : Chinese
Default                        : No
Forced                         : No
Text #3
ID                             : 5
Format                         : ASS
Codec ID                       : S_TEXT/ASS
Codec ID/Info                  : Advanced Sub Station Alpha
Duration                       : 1 h 38 min
Bit rate                       : 196 b/s
Count of elements              : 1299
Compression mode               : Lossless
Stream size                    : 142 KiB (0%)
Title                          : 繁体字幕
Language                       : Chinese
Default                        : No
Forced                         : No
Text #4
ID                             : 6
Format                         : ASS
Codec ID                       : S_TEXT/ASS
Codec ID/Info                  : Advanced Sub Station Alpha
Duration                       : 1 h 38 min
Bit rate                       : 184 b/s
Count of elements              : 1297
Compression mode               : Lossless
Stream size                    : 134 KiB (0%)
Title                          : 英文字幕
Language                       : English
Default                        : No
Forced                         : No
20190801120031.jpg
                                                                                                                                                                                                        

                                                                                                                                                  

hao8k提示您,点击下方下载按钮立刻开始下载
性、谎言和录像带.Sex, Lies, and Videotape.1989.US.BluRay.1920x1040p.x264.AC3-KOOK.[中英双字]

性、谎言和录像带.Sex, Lies, and Videotape.1989.US.BluRay.1920x1040p.x264.AC3-KOO.torrent ( 169.42 KB )



遇到问题怎么办?
Hao8k小助手精心为您解答:

蓝光资源该怎么播放?Hao8k精选播放软件汇总
用什么下载Hao8k资源呢?精选下载软件合辑
去看看新手学院,Hao8k小助手带你玩转高清
回复

使用道具 举报

全部回复0 显示全部楼层

声明:您在社区发表的所有信息仅代表用户个人观点,与本网站立场无关,希望各位烧友理性发言,不发表违法国家法律禁止的话题。

您需要登录后才可以回帖 登录 | 立即注册

本版积分规则

开通会员 每日签到 返回顶部 返回列表