开启左侧

[奇幻片] 巴格达大盗/月宫宝盒 The.Thief.of.Bagdad.1940.1080p.BluRay.x264.DTS-FGT 8.45GB

Hao8k资源组 发表于 2019-12-26 21:10:13 | 显示全部楼层 |阅读模式

马上注册 Hao8k.cn ,获得更好的体验,让你轻松玩转Hao8k

您需要 登录 才可以下载或查看,没有帐号?立即注册

x
20190801120031.jpg
译  名 巴格达大盗/月宫宝盒/巴格达的盗贼
片  名 The Thief of Bagdad
年  代 1940
国  家 英国
类  别 冒险/家庭/奇幻
语  言 英语
上映日期 1940-12-05
IMDb评分  7.6/10 from 8,804 users
◎◎豆瓣评分 7.7/10 from 1,068 users
◎◎片  长 106 分钟
导  演 Ludwig Berger / 迈克尔·鲍威尔 Michael Powell / 蒂姆威伦 Tim Whelan
主  演
康拉德·韦特 Conrad Veidt
Sabu
June Duprez
John Justin
Rex Ingram

简  介
  由密契尔·鲍威尔等三位导演联合执导的一部历久弥新的神话片。故事取材于阿拉伯神话,内容大致描述一个会妖术的奸相贾法,用阴谋诡计把巴格达城的阿麦王拘禁起来,然后自号为王。阿麦后来得到同牢的小神阿菩相助而逃走。贾法为了得到公主,把阿麦变成瞎子,并把阿菩变成一条狗。最后得巨人相助,终于射杀贾法,让阿麦重新成为巴格达城的国王。导演手法相当统一流畅,而且对光影的运用别有一手。此外,本片有很多建筑宏伟的布景和模型,运用起来都很恰当,交互剪接之后也没有什么明显的破绽。
◎获奖情况
  第13届奥斯卡金像奖 (1941)
  彩色片最佳摄影 Georges Périnal
  最佳特效 Jack Whitney / Lawrence W. Butler
  彩色片最佳艺术指导 Vincent Korda
  最佳原创配乐(提名) 米克罗斯·罗兹萨
Video
ID                                       : 1
Format                                   : AVC
Format/Info                              : Advanced Video Codec
Format profile                           : High@L4.1
Format settings, CABAC                   : Yes
Format settings, ReFrames                : 4 frames
Codec ID                                 : V_MPEG4/ISO/AVC
Duration                                 : 1h 46mn
Bit rate                                 : 10.4 Mbps
Width                                    : 1 440 pixels
Height                                   : 1 080 pixels
Display aspect ratio                     : 4:3
Frame rate mode                          : Constant
Frame rate                               : 24.000 fps
Color space                              : YUV
Chroma subsampling                       : 4:2:0
Bit depth                                : 8 bits
Scan type                                : Progressive
Bits/(Pixel*Frame)                       : 0.279
Stream size                              : 7.71 GiB (91%)
Writing library                          : x264 core 129 r2245 bc13772
Encoding settings                        : cabac=1 / ref=4 / deblock=1:-1:-1 / analyse=0x3:0x133 / me=umh / subme=7 / psy=1 / psy_rd=1.00:0.15 / mixed_ref=1 / me_range=16 / chroma_me=1 / trellis=1 / 8x8dct=1 / cqm=0 / deadzone=21,11 / fast_pskip=0 / chroma_qp_offset=-3 / threads=12 / lookahead_threads=2 / sliced_threads=0 / nr=0 / decimate=1 / interlaced=0 / bluray_compat=0 / constrained_intra=0 / bframes=3 / b_pyramid=2 / b_adapt=1 / b_bias=0 / direct=3 / weightb=1 / open_gop=0 / weightp=2 / keyint=240 / keyint_min=24 / scenecut=40 / intra_refresh=0 / rc_lookahead=40 / rc=crf / mbtree=1 / crf=20.0 / qcomp=0.60 / qpmin=10 / qpmax=69 / qpstep=4 / ip_ratio=1.40 / aq=1:1.00
Language                                 : English
Default                                  : Yes
Forced                                   : No
Audio
ID                                       : 2
Format                                   : DTS
Format/Info                              : Digital Theater Systems
Mode                                     : 16
Format settings, Endianness              : Big
Codec ID                                 : A_DTS
Duration                                 : 1h 46mn
Bit rate mode                            : Constant
Bit rate                                 : 768 Kbps
Channel(s)                               : 1 channel
Channel positions                        : Front: C
Sampling rate                            : 48.0 KHz
Bit depth                                : 16 bits
Compression mode                         : Lossy
Stream size                              : 583 MiB (7%)
Language                                 : English
Default                                  : Yes
Forced                                   : No
Menu
00:00:00.000                             : en:00:00:00.000
00:04:16.875                             : en:00:04:16.875
00:09:03.083                             : en:00:09:03.083
00:12:00.791                             : en:00:12:00.791
00:16:20.791                             : en:00:16:20.791
00:21:17.291                             : en:00:21:17.291
00:25:15.166                             : en:00:25:15.166
00:29:03.666                             : en:00:29:03.666
00:35:38.666                             : en:00:35:38.666
00:43:19.791                             : en:00:43:19.791
00:49:41.833                             : en:00:49:41.833
00:54:52.708                             : en:00:54:52.708
00:58:29.875                             : en:00:58:29.875
01:01:37.500                             : en:01:01:37.500
01:05:30.375                             : en:01:05:30.375
01:11:06.416                             : en:01:11:06.416
01:14:12.750                             : en:01:14:12.750
01:18:27.916                             : en:01:18:27.916
01:22:13.125                             : en:01:22:13.125
01:27:02.666                             : en:01:27:02.666
01:31:23.125                             : en:01:31:23.125
01:34:57.958                             : en:01:34:57.958
01:40:48.708                             : en:01:40:48.708
01:44:03.000                             : en:01:44:03.000
精彩剧照

20190801120031.jpg 20190801120031.jpg 20190801120031.jpg 20190801120031.jpg 20190801120031.jpg 20190801120031.jpg                                                                                 

                                                                                                                                                  

hao8k提示您,点击下方下载按钮立刻开始下载
巴格达大盗/月宫宝盒 The.Thief.of.Bagdad.1940.1080p.BluRay.x264.DTS-FGT 8.45GB

The.Thief.of.Bagdad.1940.1080p.BluRay.x264.DTS-FGT.torrent ( 85.1 KB )



遇到问题怎么办?
Hao8k小助手精心为您解答:

蓝光资源该怎么播放?Hao8k精选播放软件汇总
用什么下载Hao8k资源呢?精选下载软件合辑
去看看新手学院,Hao8k小助手带你玩转高清
回复

使用道具 举报

全部回复0 显示全部楼层

声明:您在社区发表的所有信息仅代表用户个人观点,与本网站立场无关,希望各位烧友理性发言,不发表违法国家法律禁止的话题。

您需要登录后才可以回帖 登录 | 立即注册

本版积分规则

开通会员 每日签到 返回顶部 返回列表