开启左侧

[动作片] 校园英雄队/轰天少爷兵 Toy.Soldiers.1991.1080p.BluRay.x264.DTS-FGT 8.14GB

Hao8k资源组 发表于 2019-12-26 21:08:56 | 显示全部楼层 |阅读模式

马上注册 Hao8k.cn ,获得更好的体验,让你轻松玩转Hao8k

您需要 登录 才可以下载或查看,没有帐号?立即注册

x
20190801120031.jpg
译  名 校园英雄队/轰天少爷兵
片  名 Toy Soldiers
年  代 1991
国  家 美国
类  别 动作/剧情/惊悚
语  言 英语
上映日期 1991-04-26
IMDb评分  6.5/10 from 15,485 users
◎◎豆瓣评分 8.0/10 from 71 users
◎◎片  长 111 分钟
导  演 小 丹尼尔 皮特里 (Daniel Petrie Jr.)
主  演
肖恩·奥斯汀
威尔·惠顿
基斯·库甘

简  介
  描述一群恐布份子入侵一所全美最烂的私立高中,发现该校学生竟都有显赫的家世背景,遂决定将他们挟为人质,与美国政府谈判。最后在一群平日最调皮的学生运用机智与自然科学天才,击退歹徒。
Video
ID                                       : 1
Format                                   : AVC
Format/Info                              : Advanced Video Codec
Format profile                           : High@L4.1
Format settings, CABAC                   : Yes
Format settings, ReFrames                : 4 frames
Codec ID                                 : V_MPEG4/ISO/AVC
Duration                                 : 1h 52mn
Bit rate                                 : 9 632 Kbps
Width                                    : 1 920 pixels
Height                                   : 1 040 pixels
Display aspect ratio                     : 1.85:1
Frame rate mode                          : Constant
Frame rate                               : 23.976 fps
Color space                              : YUV
Chroma subsampling                       : 4:2:0
Bit depth                                : 8 bits
Scan type                                : Progressive
Bits/(Pixel*Frame)                       : 0.201
Stream size                              : 7.37 GiB (91%)
Writing library                          : x264 core 142 r2453 ea0ca51
Encoding settings                        : cabac=1 / ref=4 / deblock=1:-3:-3 / analyse=0x3:0x133 / me=umh / subme=8 / psy=1 / psy_rd=1.00:0.15 / mixed_ref=1 / me_range=16 / chroma_me=1 / trellis=1 / 8x8dct=1 / cqm=0 / deadzone=21,11 / fast_pskip=0 / chroma_qp_offset=-3 / threads=12 / lookahead_threads=2 / sliced_threads=0 / nr=0 / decimate=1 / interlaced=0 / bluray_compat=0 / constrained_intra=0 / bframes=3 / b_pyramid=2 / b_adapt=2 / b_bias=0 / direct=3 / weightb=1 / open_gop=0 / weightp=2 / keyint=240 / keyint_min=23 / scenecut=40 / intra_refresh=0 / rc_lookahead=50 / rc=2pass / mbtree=1 / bitrate=9632 / ratetol=1.0 / qcomp=0.60 / qpmin=0 / qpmax=69 / qpstep=4 / cplxblur=20.0 / qblur=0.5 / ip_ratio=1.40 / aq=1:1.00
Language                                 : English
Default                                  : Yes
Forced                                   : No
Audio
ID                                       : 2
Format                                   : DTS
Format/Info                              : Digital Theater Systems
Mode                                     : 16
Format settings, Endianness              : Big
Codec ID                                 : A_DTS
Duration                                 : 1h 52mn
Bit rate mode                            : Constant
Bit rate                                 : 768 Kbps
Channel(s)                               : 6 channels
Channel positions                        : Front: L C R, Side: L R, LFE
Sampling rate                            : 48.0 KHz
Bit depth                                : 24 bits
Compression mode                         : Lossy
Stream size                              : 616 MiB (7%)
Language                                 : English
Default                                  : Yes
Forced                                   : No
Menu
00:00:00.000                             : en:00:00:00.000
00:04:22.012                             : en:00:04:22.012
00:09:20.935                             : en:00:09:20.935
00:23:31.410                             : en:00:23:31.410
00:34:28.817                             : en:00:34:28.817
00:42:24.959                             : en:00:42:24.959
00:51:44.393                             : en:00:51:44.393
01:03:58.418                             : en:01:03:58.418
01:13:09.343                             : en:01:13:09.343
01:25:29.916                             : en:01:25:29.916
01:33:49.958                             : en:01:33:49.958
01:44:45.946                             : en:01:44:45.946
精彩剧照

20190801120031.jpg 20190801120031.jpg 20190801120031.jpg 20190801120031.jpg 20190801120031.jpg 20190801120031.jpg                                                                                 

                                                                                                                                                  

hao8k提示您,点击下方下载按钮立刻开始下载
校园英雄队/轰天少爷兵 Toy.Soldiers.1991.1080p.BluRay.x264.DTS-FGT 8.14GB

Toy.Soldiers.1991.1080p.BluRay.x264.DTS-FGT.torrent ( 81.97 KB )



遇到问题怎么办?
Hao8k小助手精心为您解答:

蓝光资源该怎么播放?Hao8k精选播放软件汇总
用什么下载Hao8k资源呢?精选下载软件合辑
去看看新手学院,Hao8k小助手带你玩转高清
回复

使用道具 举报

全部回复0 显示全部楼层

声明:您在社区发表的所有信息仅代表用户个人观点,与本网站立场无关,希望各位烧友理性发言,不发表违法国家法律禁止的话题。

您需要登录后才可以回帖 登录 | 立即注册

本版积分规则

开通会员 每日签到 返回顶部 返回列表