开启左侧

[喜剧片] 录取通知/虚拟入学 Accepted.2006.1080p.BluRay.x264.DTS-FGT 7.96GB

Hao8k资源组 发表于 2019-12-26 21:07:20 | 显示全部楼层 |阅读模式

马上注册 Hao8k.cn ,获得更好的体验,让你轻松玩转Hao8k

您需要 登录 才可以下载或查看,没有帐号?立即注册

x
20190801120031.jpg
译  名 录取通知/虚拟入学
片  名 Accepted
年  代 2006
国  家 美国
类  别 喜剧
语  言 英语
上映日期 2006-08-18(美国)
IMDb评分  6.5/10 from 101,183 users
◎◎豆瓣评分 7.6/10 from 37,260 users
◎◎片  长 90 分钟
导  演 斯蒂夫·平克 Steve Pink
主  演
贾斯汀·朗 Justin Long
乔纳·希尔 Jonah Hill
布蕾克·莱弗利 Blake Lively
玛丽亚·泰耶尔 Maria Thayer
汉娜·马克斯 Hannah Marks
哥伦布·绍特 Columbus Short

简  介
  高中毕业生巴特比(贾斯汀·朗 Justin Long 饰)被无数大学拒之门外,面对父母的压力,巴特比找了一群和他有同样经历的哥们,租了一栋废弃的两层楼的楼房,自己办起了一所叫“南方哈门工业大学”的学校。这间学校的宗旨就是“谁都能来上大学”。
  原本打算只是为了蒙混父母,没想到一下子就有全美就有几百名遭遇一样的高中毕业来报到。其中一个学生的遭遇几乎代表了这里的所有人――当他收到录取通知时,他的父母第一次对他说出了“你是我的骄傲”。巴特比他们只好忙前忙后,聘请教师、逐渐完善教学设施等。
  随着学校的名气越来越大,引起了另一所“哈门”大学校长的注意……
Video
ID                                       : 1
Format                                   : AVC
Format/Info                              : Advanced Video Codec
Format profile                           : High@L5.1
Format settings, CABAC                   : Yes
Format settings, ReFrames                : 6 frames
Codec ID                                 : V_MPEG4/ISO/AVC
Duration                                 : 1h 33mn
Bit rate                                 : 10.7 Mbps
Width                                    : 1 920 pixels
Height                                   : 816 pixels
Display aspect ratio                     : 2.35:1
Frame rate mode                          : Constant
Frame rate                               : 23.976 fps
Color space                              : YUV
Chroma subsampling                       : 4:2:0
Bit depth                                : 8 bits
Scan type                                : Progressive
Bits/(Pixel*Frame)                       : 0.286
Stream size                              : 6.82 GiB (86%)
Writing library                          : x264 core 55
Encoding settings                        : cabac=1 / ref=3 / deblock=1:0:0 / analyse=0x3:0x133 / me=hex / subme=6 / brdo=0 / mixed_ref=0 / me_range=16 / chroma_me=1 / trellis=1 / 8x8dct=1 / cqm=2 / deadzone=21,11 / chroma_qp_offset=0 / threads=3 / nr=0 / decimate=1 / mbaff=0 / bframes=3 / b_pyramid=1 / b_adapt=1 / b_bias=0 / direct=3 / wpredb=1 / bime=0 / keyint=250 / keyint_min=25 / scenecut=40(pre) / rc=2pass / bitrate=10726 / ratetol=4.0 / rceq=\ blurCplx^(1-qComp)\  / qcomp=0.60 / qpmin=10 / qpmax=51 / qpstep=4 / cplxblur=20.0 / qblur=0.5 / ip_ratio=1.40 / pb_ratio=1.30
Language                                 : English
Default                                  : Yes
Forced                                   : No
Audio
ID                                       : 2
Format                                   : DTS
Format/Info                              : Digital Theater Systems
Mode                                     : 16
Format settings, Endianness              : Big
Codec ID                                 : A_DTS
Duration                                 : 1h 33mn
Bit rate mode                            : Constant
Bit rate                                 : 1 510 Kbps
Channel(s)                               : 6 channels
Channel positions                        : Front: L C R, Side: L R, LFE
Sampling rate                            : 48.0 KHz
Bit depth                                : 24 bits
Compression mode                         : Lossy
Stream size                              : 1 005 MiB (12%)
Language                                 : English
Default                                  : Yes
Forced                                   : No
Text
ID                                       : 3
Format                                   : UTF-8
Codec ID                                 : S_TEXT/UTF8
Codec ID/Info                            : UTF-8 Plain Text
Language                                 : English
Default                                  : No
Forced                                   : No
精彩剧照

20190801120031.jpg 20190801120031.jpg 20190801120031.jpg 20190801120031.jpg 20190801120031.jpg 20190801120031.jpg                                                                                 

                                                                                                                                                  

hao8k提示您,点击下方下载按钮立刻开始下载
录取通知/虚拟入学 Accepted.2006.1080p.BluRay.x264.DTS-FGT 7.96GB

Accepted.2006.1080p.BluRay.x264.DTS-FGT.torrent ( 80.16 KB )



遇到问题怎么办?
Hao8k小助手精心为您解答:

蓝光资源该怎么播放?Hao8k精选播放软件汇总
用什么下载Hao8k资源呢?精选下载软件合辑
去看看新手学院,Hao8k小助手带你玩转高清
回复

使用道具 举报

全部回复0 显示全部楼层

声明:您在社区发表的所有信息仅代表用户个人观点,与本网站立场无关,希望各位烧友理性发言,不发表违法国家法律禁止的话题。

您需要登录后才可以回帖 登录 | 立即注册

本版积分规则

开通会员 每日签到 返回顶部 返回列表