开启左侧

[奇幻片] 孤胆义侠/鬼屋魔影/异形鬼屋 Alone.in.the.Dark.2005.1080p.BluRay.x264.DTS-FGT 8.43GB

Hao8k资源组 发表于 2019-12-26 21:05:44 | 显示全部楼层 |阅读模式

马上注册 Hao8k.cn ,获得更好的体验,让你轻松玩转Hao8k

您需要 登录 才可以下载或查看,没有帐号?立即注册

x
20190801120031.jpg
译  名 孤胆义侠/鬼屋魔影/异形鬼屋/孤胆义侠之异形浩劫
片  名 Alone in the Dark
年  代 2005
国  家 加拿大/德国/美国
类  别 动作/奇幻/恐怖
语  言 英语
上映日期 2005-01-28(美国)/2009-03-20(中国大陆)
IMDb评分  2.3/10 from 36,627 users
◎◎豆瓣评分 3.5/10 from 1,263 users
◎◎片  长 96分钟
导  演 乌维·鲍尔 Uwe Boll
主  演
克里斯蒂安·史莱特 Christian Slater
塔拉·雷德 Tara Reid
斯蒂芬·多尔夫 Stephen Dorff
Frank C. Turner

简  介
  距今一万年前的美洲,阿卡尼文明盛行一时,阿卡尼相信世界分为光明与黑暗两个世界,彼此间存在联络之门。有记载称阿卡尼曾打开两个世界间的门,使一些魔物肆虐世间,随后阿卡尼神秘灭亡。20世纪60年代,政府成立超自然研究部门713局,委派莱昂内尔?哈金斯博士(Matthew Walker 饰)研究阿卡尼文明,但他的研究随后被推翻。哈金斯躲在一个小岛,对儿童进行残酷的秘密试验,使他们和魔物融为一体。
  21世纪初,各地接连发生儿童失踪案件,超自然现象调查员爱德华?卡比(Christian Slater 饰)受命前往小岛调查,但他才出机场,便遭到神秘之人的攻击。这一切注定他的旅程艰险无比……
Video
ID                                       : 1
Format                                   : AVC
Format/Info                              : Advanced Video Codec
Format profile                           : High@L4.1
Format settings, CABAC                   : Yes
Format settings, ReFrames                : 4 frames
Codec ID                                 : V_MPEG4/ISO/AVC
Duration                                 : 1h 39mn
Bit rate                                 : 10.6 Mbps
Width                                    : 1 920 pixels
Height                                   : 1 040 pixels
Display aspect ratio                     : 1.85:1
Frame rate mode                          : Constant
Frame rate                               : 23.976 fps
Color space                              : YUV
Chroma subsampling                       : 4:2:0
Bit depth                                : 8 bits
Scan type                                : Progressive
Bits/(Pixel*Frame)                       : 0.222
Stream size                              : 7.21 GiB (86%)
Writing library                          : x264 core 59 r851M e11ef38
Encoding settings                        : cabac=1 / ref=4 / deblock=1:0:0 / analyse=0x3:0x113 / me=umh / subme=6 / me-prepass=0 / brdo=1 / mixed_ref=1 / me_range=12 / chroma_me=1 / trellis=1 / 8x8dct=1 / cqm=0 / deadzone=21,11 / chroma_qp_offset=0 / threads=6 / nr=0 / decimate=1 / mbaff=0 / fgo=0 / bframes=3 / b_pyramid=0 / b_adapt=1 / b_bias=0 / direct=3 / wpredb=1 / bime=1 / keyint=250 / keyint_min=25 / scenecut=40(pre) / rc=2pass / bitrate=10616 / ratetol=1.0 / rceq=\ blurCplx^(1-qComp)\  / qcomp=1.00 / qpmin=10 / qpmax=51 / qpstep=4 / cplxblur=20.0 / qblur=0.5 / vbv_maxrate=24000 / vbv_bufsize=9000 / ip_ratio=1.10 / pb_ratio=1.10 / aq=2:1.00
Language                                 : English
Default                                  : Yes
Forced                                   : No
Audio
ID                                       : 2
Format                                   : DTS
Format/Info                              : Digital Theater Systems
Mode                                     : 16
Format settings, Endianness              : Big
Codec ID                                 : A_DTS
Duration                                 : 1h 39mn
Bit rate mode                            : Constant
Bit rate                                 : 1 510 Kbps
Channel(s)                               : 6 channels
Channel positions                        : Front: L C R, Side: L R, LFE
Sampling rate                            : 48.0 KHz
Bit depth                                : 24 bits
Compression mode                         : Lossy
Stream size                              : 1.05 GiB (12%)
Language                                 : English
Default                                  : Yes
Forced                                   : No
精彩剧照

20190801120031.jpg 20190801120031.jpg 20190801120031.jpg 20190801120031.jpg 20190801120031.jpg 20190801120031.jpg                                                                                 

                                                                                                                                                  

hao8k提示您,点击下方下载按钮立刻开始下载
孤胆义侠/鬼屋魔影/异形鬼屋 Alone.in.the.Dark.2005.1080p.BluRay.x264.DTS-FGT 8.43GB

Alone.in.the.Dark.2005.1080p.BluRay.x264.DTS-FGT.torrent ( 84.97 KB )



遇到问题怎么办?
Hao8k小助手精心为您解答:

蓝光资源该怎么播放?Hao8k精选播放软件汇总
用什么下载Hao8k资源呢?精选下载软件合辑
去看看新手学院,Hao8k小助手带你玩转高清
回复

使用道具 举报

全部回复0 显示全部楼层

声明:您在社区发表的所有信息仅代表用户个人观点,与本网站立场无关,希望各位烧友理性发言,不发表违法国家法律禁止的话题。

您需要登录后才可以回帖 登录 | 立即注册

本版积分规则

开通会员 每日签到 返回顶部 返回列表