开启左侧

[恐怖片] 美国恐怖鬼屋/鬼屋惊魂记 American.Horror.House.2012.1080p.BluRay.x264.DTS-FGT 9.44GB

Hao8k资源组 发表于 2019-12-26 21:03:56 | 显示全部楼层 |阅读模式

马上注册 Hao8k.cn ,获得更好的体验,让你轻松玩转Hao8k

您需要 登录 才可以下载或查看,没有帐号?立即注册

x
20190801120031.jpg
译  名 美国恐怖鬼屋/鬼屋惊魂记/恐怖屋
片  名 American Horror House
年  代 2012
国  家 美国
类  别 恐怖
语  言 英语
上映日期 2012-10-13(美国)
IMDb评分  3.8/10 from 565 users
◎◎豆瓣评分 0/10 from 9 users
◎◎片  长 85分钟
导  演 Darin Scott
主  演
Jackie Tuttle
Carol Wells
Salina Duplessis

简  介
  一所大学因为学生过多,不得不重新开发50年代建造、但后来因为「闹鬼」而被迫关闭的校舍。在一年一度的万圣节聚会上,一群女学生偷了学校的吉祥物跑到该校舍里狂欢,诡异的灵异事件开始接连发生。她们发现自己被困在了「鬼楼」里,四周不断出现可怕的鬼魂……更要命的是,一个复仇心切的女舍监下决心要将她们全都杀死!Morgan Fairchild和Alessandra Torresani(《卡布里卡》)主演该片。
Video
ID                                       : 1
Format                                   : AVC
Format/Info                              : Advanced Video Codec
Format profile                           : High@L4.1
Format settings, CABAC                   : Yes
Format settings, ReFrames                : 4 frames
Codec ID                                 : V_MPEG4/ISO/AVC
Duration                                 : 1h 23mn
Bit rate                                 : 14.4 Mbps
Width                                    : 1 920 pixels
Height                                   : 1 080 pixels
Display aspect ratio                     : 16:9
Frame rate mode                          : Constant
Frame rate                               : 23.976 fps
Color space                              : YUV
Chroma subsampling                       : 4:2:0
Bit depth                                : 8 bits
Scan type                                : Progressive
Bits/(Pixel*Frame)                       : 0.290
Stream size                              : 8.37 GiB (89%)
Writing library                          : x264 core 135 r2345 f0c1c53
Encoding settings                        : cabac=1 / ref=4 / deblock=1:-3:-3 / analyse=0x3:0x113 / me=umh / subme=7 / psy=1 / psy_rd=1.00:0.00 / mixed_ref=1 / me_range=16 / chroma_me=1 / trellis=1 / 8x8dct=1 / cqm=0 / deadzone=21,11 / fast_pskip=0 / chroma_qp_offset=-2 / threads=8 / lookahead_threads=1 / sliced_threads=0 / nr=0 / decimate=1 / interlaced=0 / bluray_compat=0 / constrained_intra=0 / bframes=3 / b_pyramid=2 / b_adapt=1 / b_bias=0 / direct=3 / weightb=1 / open_gop=0 / weightp=2 / keyint=250 / keyint_min=23 / scenecut=40 / intra_refresh=0 / rc_lookahead=40 / rc=crf / mbtree=1 / crf=20.0 / qcomp=0.60 / qpmin=0 / qpmax=69 / qpstep=4 / ip_ratio=1.40 / aq=1:1.00
Language                                 : English
Default                                  : Yes
Forced                                   : No
Audio
ID                                       : 2
Format                                   : DTS
Format/Info                              : Digital Theater Systems
Mode                                     : 16
Format settings, Endianness              : Big
Codec ID                                 : A_DTS
Duration                                 : 1h 23mn
Bit rate mode                            : Constant
Bit rate                                 : 1 509 Kbps
Channel(s)                               : 6 channels
Channel positions                        : Front: L C R, Side: L R, LFE
Sampling rate                            : 48.0 KHz
Bit depth                                : 16 bits
Compression mode                         : Lossy
Stream size                              : 898 MiB (9%)
Language                                 : English
Default                                  : Yes
Forced                                   : No
Menu
00:00:00.000                             : en:00:00:00.000
00:09:21.936                             : en:00:09:21.936
00:20:06.997                             : en:00:20:06.997
00:30:27.993                             : en:00:30:27.993
00:39:43.965                             : en:00:39:43.965
00:51:37.970                             : en:00:51:37.970
00:59:28.940                             : en:00:59:28.940
01:09:59.946                             : en:01:09:59.946
01:19:59.920                             : en:01:19:59.920
精彩剧照

20190801120031.jpg 20190801120031.jpg 20190801120031.jpg 20190801120031.jpg 20190801120031.jpg 20190801120031.jpg                                                                                 

                                                                                                                                                  

hao8k提示您,点击下方下载按钮立刻开始下载
美国恐怖鬼屋/鬼屋惊魂记 American.Horror.House.2012.1080p.BluRay.x264.DTS-FGT 9.44GB

American.Horror.House.2012.1080p.BluRay.x264.DTS-FGT.torrent ( 95.04 KB )



遇到问题怎么办?
Hao8k小助手精心为您解答:

蓝光资源该怎么播放?Hao8k精选播放软件汇总
用什么下载Hao8k资源呢?精选下载软件合辑
去看看新手学院,Hao8k小助手带你玩转高清
回复

使用道具 举报

全部回复0 显示全部楼层

声明:您在社区发表的所有信息仅代表用户个人观点,与本网站立场无关,希望各位烧友理性发言,不发表违法国家法律禁止的话题。

您需要登录后才可以回帖 登录 | 立即注册

本版积分规则

开通会员 每日签到 返回顶部 返回列表