开启左侧

[惊悚片] 幻影 Ghosted.2011.1080p.BluRay.x264.DTS-FGT 4.5GB

Hao8k资源组 发表于 2019-12-26 20:59:46 | 显示全部楼层 |阅读模式

马上注册 Hao8k.cn ,获得更好的体验,让你轻松玩转Hao8k

您需要 登录 才可以下载或查看,没有帐号?立即注册

x
20190801120031.jpg
译  名 幻影
片  名 Ghosted
年  代 2011
国  家 英国
类  别 剧情/惊悚
语  言 英语
上映日期 2011
IMDb评分  5.7/10 from 517 users
◎◎片  长 UK: 110 分钟
导  演 克雷格·比贝洛斯 Craig Viveiros
简  介
   GHOSTED  tells a story of survival inside a British Prison. Jack a model prisoner| has kept his head down and done his time. After his wife confirms that she is
leaving him| on the anniversary of their son s death| the only thing that keeps him from going under is the new prisoner| Paul. Jack s cell mate Ahmed| attempts to
guide him on a path of salvation| a path that involves saving Paul from the clutches of the wing beast| Clay. Jack struggles between the curiosity of the head prison
officer Donner| and the violent determination of clay| eventually saving Paul. As Jack and Paul finally accept each other| it soon becomes clear that Paul is not all
he seems and may have a closer connection to Jack than he could ever imagine.
Video
ID                                       : 1
Format                                   : AVC
Format/Info                              : Advanced Video Codec
Format profile                           : High@L4.1
Format settings, CABAC                   : Yes
Format settings, ReFrames                : 5 frames
Codec ID                                 : V_MPEG4/ISO/AVC
Duration                                 : 1h 46mn
Bit rate                                 : 4 426 Kbps
Width                                    : 1 920 pixels
Height                                   : 816 pixels
Display aspect ratio                     : 2.35:1
Frame rate mode                          : Constant
Frame rate                               : 23.976 fps
Color space                              : YUV
Chroma subsampling                       : 4:2:0
Bit depth                                : 8 bits
Scan type                                : Progressive
Bits/(Pixel*Frame)                       : 0.118
Stream size                              : 3.29 GiB (73%)
Writing library                          : x264 core 128 r2216 198a7ea
Encoding settings                        : cabac=1 / ref=5 / deblock=1:-1:-1 / analyse=0x3:0x133 / me=umh / subme=7 / psy=1 / psy_rd=1.00:0.15 / mixed_ref=1 / me_range=16 / chroma_me=1 / trellis=1 / 8x8dct=1 / cqm=0 / deadzone=21,11 / fast_pskip=0 / chroma_qp_offset=-3 / threads=12 / lookahead_threads=2 / sliced_threads=0 / nr=0 / decimate=1 / interlaced=0 / bluray_compat=0 / constrained_intra=0 / bframes=3 / b_pyramid=2 / b_adapt=1 / b_bias=0 / direct=3 / weightb=1 / open_gop=0 / weightp=2 / keyint=240 / keyint_min=23 / scenecut=40 / intra_refresh=0 / rc_lookahead=40 / rc=crf / mbtree=1 / crf=20.0 / qcomp=0.60 / qpmin=10 / qpmax=69 / qpstep=4 / ip_ratio=1.40 / aq=1:1.00
Language                                 : English
Default                                  : Yes
Forced                                   : No
Audio
ID                                       : 2
Format                                   : DTS
Format/Info                              : Digital Theater Systems
Mode                                     : 16
Format settings, Endianness              : Big
Codec ID                                 : A_DTS
Duration                                 : 1h 46mn
Bit rate mode                            : Constant
Bit rate                                 : 1 509 Kbps
Channel(s)                               : 6 channels
Channel positions                        : Front: L C R, Side: L R, LFE
Sampling rate                            : 48.0 KHz
Bit depth                                : 16 bits
Compression mode                         : Lossy
Stream size                              : 1.12 GiB (25%)
Language                                 : English
Default                                  : Yes
Forced                                   : No
精彩剧照

20190801120031.jpg 20190801120031.jpg 20190801120031.jpg 20190801120031.jpg 20190801120031.jpg 20190801120031.jpg
                                                                                

                                                                                                                                                  

hao8k提示您,点击下方下载按钮立刻开始下载
幻影 Ghosted.2011.1080p.BluRay.x264.DTS-FGT 4.5GB

Ghosted.2011.1080p.BluRay.x264.DTS-FGT.torrent ( 90.66 KB )



遇到问题怎么办?
Hao8k小助手精心为您解答:

蓝光资源该怎么播放?Hao8k精选播放软件汇总
用什么下载Hao8k资源呢?精选下载软件合辑
去看看新手学院,Hao8k小助手带你玩转高清
回复

使用道具 举报

全部回复0 显示全部楼层

声明:您在社区发表的所有信息仅代表用户个人观点,与本网站立场无关,希望各位烧友理性发言,不发表违法国家法律禁止的话题。

您需要登录后才可以回帖 登录 | 立即注册

本版积分规则

开通会员 每日签到 返回顶部 返回列表