开启左侧

[惊悚片] 格蕾丝 Grace.2009.1080p.BluRay.x264.DTS-FGT 5.61GB

Hao8k资源组 发表于 2019-12-26 20:58:29 | 显示全部楼层 |阅读模式

马上注册 Hao8k.cn ,获得更好的体验,让你轻松玩转Hao8k

您需要 登录 才可以下载或查看,没有帐号?立即注册

x
20190801120031.jpg
译  名 格蕾丝
片  名 Grace
年  代 2009
国  家 美国/加拿大
类  别 剧情/恐怖/惊悚
语  言 英语
上映日期 2009-01-16
IMDb评分  5.2/10 from 6,621 users
◎◎豆瓣评分 5.6/10 from 4,514 users
◎◎片  长 USA: 85 分钟(Sundance Film Festival)
导  演 Paul Solet
主  演
乔丹·莱德 Jordan Ladd
Stephen Park
Gabrielle Rose

简  介
  麦德琳(Jordan Ladd 饰)婚后经历了两次流产,所以再次怀孕的她对腹中胎儿寄予厚望,不惜在怀孕前使用药物。平常有些压抑的家庭氛围中,丈夫与婆婆同样重视胎儿的状况。麦德琳决定这次的分娩在医学博士帕蒂家中进行,丈夫有所怀疑但还是顺从了麦德琳的主意。麦德琳产前不适,医生们建议引产但被强硬的帕蒂阻止。心情抑郁的丈夫开车回家途中遭遇车祸,导致胎儿死亡,但麦德琳三周后居然生下一名健康的婴儿。麦德琳精心照料婴儿格蕾丝,却发现自己女儿以血为食,麦德琳只得默默供应女儿的血液需求,另一方面,觉察到异常的婆婆试图剥夺麦德琳的监护权,也由此引发了血腥的结局……
  本片获2009年热拉梅电影节评审团奖。
Video
ID                                       : 1
Format                                   : AVC
Format/Info                              : Advanced Video Codec
Format profile                           : Main@L4.1
Format settings, CABAC                   : Yes
Format settings, ReFrames                : 4 frames
Codec ID                                 : V_MPEG4/ISO/AVC
Duration                                 : 1h 24mn
Bit rate                                 : 7 801 Kbps
Width                                    : 1 920 pixels
Height                                   : 816 pixels
Display aspect ratio                     : 2.35:1
Frame rate mode                          : Constant
Frame rate                               : 23.976 fps
Color space                              : YUV
Chroma subsampling                       : 4:2:0
Bit depth                                : 8 bits
Scan type                                : Progressive
Bits/(Pixel*Frame)                       : 0.208
Stream size                              : 4.60 GiB (82%)
Writing library                          : x264 core 104 r1698 c41b8f0
Encoding settings                        : cabac=1 / ref=4 / deblock=1:0:0 / analyse=0x1:0x111 / me=umh / subme=7 / psy=1 / psy_rd=1.00:0.00 / mixed_ref=1 / me_range=16 / chroma_me=1 / trellis=1 / 8x8dct=0 / cqm=0 / deadzone=21,11 / fast_pskip=0 / chroma_qp_offset=-2 / threads=12 / sliced_threads=0 / nr=0 / decimate=1 / interlaced=0 / constrained_intra=0 / bframes=3 / b_pyramid=2 / b_adapt=2 / b_bias=0 / direct=1 / weightb=1 / open_gop=0 / weightp=2 / keyint=250 / keyint_min=23 / scenecut=40 / intra_refresh=0 / rc_lookahead=40 / rc=crf / mbtree=1 / crf=20.0 / qcomp=0.60 / qpmin=10 / qpmax=51 / qpstep=4 / ip_ratio=1.40 / aq=1:1.00
Language                                 : English
Default                                  : Yes
Forced                                   : No
Audio
ID                                       : 2
Format                                   : DTS
Format/Info                              : Digital Theater Systems
Mode                                     : 16
Format settings, Endianness              : Big
Codec ID                                 : A_DTS
Duration                                 : 1h 24mn
Bit rate mode                            : Constant
Bit rate                                 : 1 509 Kbps
Channel(s)                               : 6 channels
Channel positions                        : Front: L C R, Side: L R, LFE
Sampling rate                            : 48.0 KHz
Bit depth                                : 16 bits
Compression mode                         : Lossy
Stream size                              : 912 MiB (16%)
Language                                 : English
Default                                  : Yes
Forced                                   : No
精彩剧照

20190801120031.jpg 20190801120031.jpg 20190801120031.jpg 20190801120031.jpg 20190801120031.jpg 20190801120031.jpg                                                                                 

                                                                                                                                                  

hao8k提示您,点击下方下载按钮立刻开始下载
格蕾丝 Grace.2009.1080p.BluRay.x264.DTS-FGT 5.61GB

Grace.2009.1080p.BluRay.x264.DTS-FGT.torrent ( 56.67 KB )



遇到问题怎么办?
Hao8k小助手精心为您解答:

蓝光资源该怎么播放?Hao8k精选播放软件汇总
用什么下载Hao8k资源呢?精选下载软件合辑
去看看新手学院,Hao8k小助手带你玩转高清
回复

使用道具 举报

全部回复0 显示全部楼层

声明:您在社区发表的所有信息仅代表用户个人观点,与本网站立场无关,希望各位烧友理性发言,不发表违法国家法律禁止的话题。

您需要登录后才可以回帖 登录 | 立即注册

本版积分规则

开通会员 每日签到 返回顶部 返回列表