开启左侧

[动作片] 阿姆斯特丹恶棍 Amsterdam.Heavy.2011.1080p.BluRay.x264.DTS-FGT 3.07GB

Hao8k资源组 发表于 2019-12-26 18:36:26 | 显示全部楼层 |阅读模式

马上注册 Hao8k.cn ,获得更好的体验,让你轻松玩转Hao8k

您需要 登录 才可以下载或查看,没有帐号?立即注册

x
20190801120031.jpg
译  名 阿姆斯特丹恶棍
片  名 Amsterdam Heavy
年  代 2011
国  家 荷兰
语  言 英语
IMDb评分  2.8/10 from 735 users
◎◎豆瓣评分 3.6/10 from 20 users
◎◎导  演 Michael Wright
主  演
艾丽森·卡洛尔 Alison Carroll

简  介
  讲述了一个神秘的黑帮横行在阿姆斯特丹,在没有停下来揭露那些已经背叛了他.现在它是由中央情报局特工马丁·基尔,停止代理马丁·基尔him.CIA(迈克尔·马德森 - 落水狗杀死比尔)设置在这种坚韧不拔的城市动作惊悚片旋转的车轮,神秘的黑帮法学博士去上横冲直撞,在阿姆斯特丹,停止在没有......
Video
ID                                       : 1
Format                                   : AVC
Format/Info                              : Advanced Video Codec
Format profile                           : High@L4.1
Format settings, CABAC                   : Yes
Format settings, ReFrames                : 5 frames
Codec ID                                 : V_MPEG4/ISO/AVC
Duration                                 : 1h 31mn
Bit rate                                 : 3 958 Kbps
Width                                    : 1 920 pixels
Height                                   : 816 pixels
Display aspect ratio                     : 2.35:1
Frame rate mode                          : Constant
Frame rate                               : 23.976 fps
Color space                              : YUV
Chroma subsampling                       : 4:2:0
Bit depth                                : 8 bits
Scan type                                : Progressive
Bits/(Pixel*Frame)                       : 0.105
Stream size                              : 2.52 GiB (82%)
Writing library                          : x264 core 119 r2106 07efeb4
Encoding settings                        : cabac=1 / ref=5 / deblock=1:0:0 / analyse=0x3:0x113 / me=umh / subme=7 / psy=1 / psy_rd=1.00:0.00 / mixed_ref=1 / me_range=16 / chroma_me=1 / trellis=1 / 8x8dct=1 / cqm=0 / deadzone=21,11 / fast_pskip=0 / chroma_qp_offset=-2 / threads=12 / sliced_threads=0 / nr=0 / decimate=1 / interlaced=0 / bluray_compat=0 / constrained_intra=0 / bframes=3 / b_pyramid=2 / b_adapt=1 / b_bias=0 / direct=1 / weightb=1 / open_gop=0 / weightp=2 / keyint=250 / keyint_min=23 / scenecut=40 / intra_refresh=0 / rc_lookahead=40 / rc=crf / mbtree=1 / crf=20.0 / qcomp=0.60 / qpmin=0 / qpmax=69 / qpstep=4 / ip_ratio=1.40 / aq=1:1.00
Language                                 : English
Default                                  : Yes
Forced                                   : No
Audio
ID                                       : 2
Format                                   : DTS
Format/Info                              : Digital Theater Systems
Mode                                     : 16
Format settings, Endianness              : Big
Codec ID                                 : A_DTS
Duration                                 : 1h 31mn
Bit rate mode                            : Constant
Bit rate                                 : 768 Kbps
Channel(s)                               : 2 channels
Channel positions                        : Front: L R
Sampling rate                            : 48.0 KHz
Bit depth                                : 24 bits
Compression mode                         : Lossy
Stream size                              : 501 MiB (16%)
Language                                 : English
Default                                  : Yes
Forced                                   : No
精彩剧照

20190801120031.jpg 20190801120031.jpg 20190801120031.jpg 20190801120031.jpg 20190801120031.jpg 20190801120031.jpg                                                                                 

                                                                                                                                                  

hao8k提示您,点击下方下载按钮立刻开始下载
阿姆斯特丹恶棍 Amsterdam.Heavy.2011.1080p.BluRay.x264.DTS-FGT 3.07GB

Amsterdam.Heavy.2011.1080p.BluRay.x264.DTS-FGT.torrent ( 62.11 KB )



遇到问题怎么办?
Hao8k小助手精心为您解答:

蓝光资源该怎么播放?Hao8k精选播放软件汇总
用什么下载Hao8k资源呢?精选下载软件合辑
去看看新手学院,Hao8k小助手带你玩转高清
回复

使用道具 举报

全部回复0 显示全部楼层

声明:您在社区发表的所有信息仅代表用户个人观点,与本网站立场无关,希望各位烧友理性发言,不发表违法国家法律禁止的话题。

您需要登录后才可以回帖 登录 | 立即注册

本版积分规则

开通会员 每日签到 返回顶部 返回列表