开启左侧

[喜剧片] 保姆奇遇记 The.Sitter.2011.UNRATED.1080p.BluRay.x264.DTS-FGT 12.03GB

Hao8k资源组 发表于 2019-12-26 18:21:46 | 显示全部楼层 |阅读模式

马上注册 Hao8k.cn ,获得更好的体验,让你轻松玩转Hao8k

您需要 登录 才可以下载或查看,没有帐号?立即注册

x
20190801120031.jpg
译  名 保姆奇遇记
片  名 The Sitter
年  代 2011
国  家 美国
类  别 喜剧
语  言 英语
上映日期 2011-12-09(美国)
IMDb评分  5.7/10 from 57,671 users
◎◎豆瓣评分 6.0/10 from 4,444 users
◎◎片  长 81分钟
导  演 大卫·戈登·格林 David Gordon Green
主  演
乔纳·希尔 Jonah Hill
阿丽·格雷勒 Ari Graynor
山姆·洛克威尔 Sam Rockwell
马克思·瑞考德兹 Max Records
杰伊·赫尔南德兹 Jay Hernandez
Landry Bender
J.B. Smoove

简  介
  诺亚?格里芬(乔纳?希尔 Jonah Hill 饰)是一个肥肥胖胖长的有些腼腆憨厚的大男孩,没有保姆经验的他因为妈妈的约会而不得不临时代替她去佩杜拉太太家做保姆的工作。佩杜拉太太有三个性格古怪的孩子,长相俊美的斯拉特是个同性恋,酷爱打扮的布莱斯总是喜欢浓妆艳抹,而罗德里格则是一个喜欢破坏的顽皮领养生。三个难对付的孩子让诺亚十分头疼,而与此同时他接到了女友玛丽萨以做爱为诱惑邀请他一起参加派对的电话。诺亚决定带上三个小孩一同前往,却不料在途中为女友买毒品的过程中,不仅三个孩子状况百出争吵不断,罗德里格更是顺手带走了毒贩卡尔装满卡洛因的罐子令四人引祸上身。而更加危险的意外是,罐子在争抢的过程中摔碎了。诺亚四人只得齐心协力,为了活命开始了逃亡之旅…
Video
ID                                       : 1
Format                                   : AVC
Format/Info                              : Advanced Video Codec
Format profile                           : High@L4.1
Format settings, CABAC                   : Yes
Format settings, ReFrames                : 4 frames
Codec ID                                 : V_MPEG4/ISO/AVC
Duration                                 : 1h 27mn
Bit rate                                 : 17.9 Mbps
Width                                    : 1 920 pixels
Height                                   : 1 036 pixels
Display aspect ratio                     : 1.85:1
Frame rate mode                          : Constant
Frame rate                               : 23.976 fps
Color space                              : YUV
Chroma subsampling                       : 4:2:0
Bit depth                                : 8 bits
Scan type                                : Progressive
Bits/(Pixel*Frame)                       : 0.375
Stream size                              : 10.9 GiB (90%)
Writing library                          : x264 core 116 r2057 0ba8a9c
Encoding settings                        : cabac=1 / ref=3 / deblock=1:-3:-3 / analyse=0x3:0x133 / me=umh / subme=10 / psy=1 / psy_rd=1.00:0.00 / mixed_ref=1 / me_range=32 / chroma_me=1 / trellis=2 / 8x8dct=1 / cqm=0 / deadzone=21,11 / fast_pskip=0 / chroma_qp_offset=-2 / threads=18 / sliced_threads=0 / nr=0 / decimate=0 / interlaced=0 / bluray_compat=0 / constrained_intra=0 / bframes=7 / b_pyramid=2 / b_adapt=2 / b_bias=0 / direct=3 / weightb=1 / open_gop=0 / weightp=2 / keyint=250 / keyint_min=23 / scenecut=40 / intra_refresh=0 / rc_lookahead=40 / rc=crf / mbtree=0 / crf=18.0 / qcomp=0.65 / qpmin=0 / qpmax=40 / qpstep=4 / vbv_maxrate=50000 / vbv_bufsize=50000 / crf_max=0.0 / nal_hrd=none / ip_ratio=1.25 / pb_ratio=1.25 / aq=1:0.65
Language                                 : English
Default                                  : Yes
Forced                                   : No
Audio
ID                                       : 2
Format                                   : DTS
Format/Info                              : Digital Theater Systems
Mode                                     : 16
Format settings, Endianness              : Big
Codec ID                                 : A_DTS
Duration                                 : 1h 27mn
Bit rate mode                            : Constant
Bit rate                                 : 1 509 Kbps
Channel(s)                               : 6 channels
Channel positions                        : Front: L C R, Side: L R, LFE
Sampling rate                            : 48.0 KHz
Bit depth                                : 24 bits
Compression mode                         : Lossy
Stream size                              : 940 MiB (8%)
Language                                 : English
Default                                  : Yes
Forced                                   : No
Text
ID                                       : 3
Format                                   : UTF-8
Codec ID                                 : S_TEXT/UTF8
Codec ID/Info                            : UTF-8 Plain Text
Title                                    : SDH
Language                                 : English
Default                                  : No
Forced                                   : No
Menu
00:00:00.000                             : en:00:00:00.000
00:04:21.303                             : en:00:04:21.303
00:07:10.096                             : en:00:07:10.096
00:12:42.971                             : en:00:12:42.971
00:16:03.045                             : en:00:16:03.045
00:20:24.431                             : en:00:20:24.431
00:22:43.821                             : en:00:22:43.821
00:29:02.324                             : en:00:29:02.324
00:33:48.568                             : en:00:33:48.568
00:37:14.774                             : en:00:37:14.774
00:41:04.337                             : en:00:41:04.337
00:44:13.776                             : en:00:44:13.776
00:46:45.344                             : en:00:46:45.344
00:49:22.251                             : en:00:49:22.251
00:54:36.648                             : en:00:54:36.648
00:58:35.053                             : en:00:58:35.053
01:00:32.253                             : en:01:00:32.253
01:02:58.691                             : en:01:02:58.691
01:07:14.864                             : en:01:07:14.864
01:10:14.544                             : en:01:10:14.544
01:14:34.345                             : en:01:14:34.345
01:17:10.751                             : en:01:17:10.751
01:20:27.406                             : en:01:20:27.406
01:22:00.874                             : en:01:22:00.874
精彩剧照

20190801120031.jpg 20190801120031.jpg 20190801120031.jpg 20190801120031.jpg 20190801120031.jpg 20190801120031.jpg                                                                                 

                                                                                                                                                  

hao8k提示您,点击下方下载按钮立刻开始下载
保姆奇遇记 The.Sitter.2011.UNRATED.1080p.BluRay.x264.DTS-FGT 12.03GB

The.Sitter.2011.UNRATED.1080p.BluRay.x264.DTS-FGT.torrent ( 60.78 KB )



遇到问题怎么办?
Hao8k小助手精心为您解答:

蓝光资源该怎么播放?Hao8k精选播放软件汇总
用什么下载Hao8k资源呢?精选下载软件合辑
去看看新手学院,Hao8k小助手带你玩转高清
回复

使用道具 举报

全部回复0 显示全部楼层

声明:您在社区发表的所有信息仅代表用户个人观点,与本网站立场无关,希望各位烧友理性发言,不发表违法国家法律禁止的话题。

您需要登录后才可以回帖 登录 | 立即注册

本版积分规则

开通会员 每日签到 返回顶部 返回列表