开启左侧

[动画片] 高卢勇士之美洲历险 Asterix.in.America.1994.1080p.BluRay.x264.DTS-FGT 10.27GB

Hao8k资源组 发表于 2019-12-26 14:11:22 | 显示全部楼层 |阅读模式

马上注册 Hao8k.cn ,获得更好的体验,让你轻松玩转Hao8k

您需要 登录 才可以下载或查看,没有帐号?立即注册

x
20190801120031.jpg
译  名 高卢勇士之美洲历险/阿斯特里克斯历险记
片  名 Astérix et les indiens
年  代 1994
国  家 德国/法国
类  别 动画/冒险/喜剧/家庭/历史
语  言 英语/法语/德语
上映日期 1994-09-29(德国)
IMDb评分  5.9/10 from 4,430 users
◎◎豆瓣评分 7.2/10 from 83 users
◎◎片  长 85 分钟
导  演 Gerhard Hahn
简  介
  罗马帝国时期恺撒的军队横扫欧洲,却对高卢的一个小村庄无能为力。原因是这里的巫师会调制一种让人力大无比的药水。为了打败这个村子恺撒让人绑架了巫师把他送到大洋对岸的地方去。村里的勇士阿斯特里克斯和他的伙伴奥普里克斯一直追到了大洋尽头,这就是美洲大陆。在这里他们和印第安人交上了朋友,成功救回了巫师,并及时回到高卢,拯救了村民。
Video
ID                                       : 1
Format                                   : AVC
Format/Info                              : Advanced Video Codec
Format profile                           : High@L4.1
Format settings, CABAC                   : Yes
Format settings, ReFrames                : 4 frames
Codec ID                                 : V_MPEG4/ISO/AVC
Duration                                 : 1h 24mn
Bit rate                                 : 15.9 Mbps
Width                                    : 1 920 pixels
Height                                   : 1 040 pixels
Display aspect ratio                     : 1.85:1
Frame rate mode                          : Constant
Frame rate                               : 23.976 fps
Color space                              : YUV
Chroma subsampling                       : 4:2:0
Bit depth                                : 8 bits
Scan type                                : Progressive
Bits/(Pixel*Frame)                       : 0.331
Stream size                              : 9.17 GiB (89%)
Writing library                          : x264 core 129 r2245 bc13772
Encoding settings                        : cabac=1 / ref=4 / deblock=1:-1:-1 / analyse=0x3:0x113 / me=tesa / subme=11 / psy=1 / psy_rd=1.05:0.00 / mixed_ref=1 / me_range=24 / chroma_me=1 / trellis=2 / 8x8dct=1 / cqm=0 / deadzone=21,11 / fast_pskip=1 / chroma_qp_offset=-2 / threads=12 / lookahead_threads=2 / sliced_threads=0 / nr=0 / decimate=1 / interlaced=0 / bluray_compat=0 / constrained_intra=0 / bframes=8 / b_pyramid=2 / b_adapt=2 / b_bias=0 / direct=3 / weightb=1 / open_gop=0 / weightp=2 / keyint=240 / keyint_min=23 / scenecut=40 / intra_refresh=0 / rc=2pass / mbtree=0 / bitrate=15850 / ratetol=1.0 / qcomp=0.60 / qpmin=10 / qpmax=69 / qpstep=4 / cplxblur=20.0 / qblur=0.5 / ip_ratio=1.40 / pb_ratio=1.30 / aq=2:0.60
Language                                 : English
Default                                  : Yes
Forced                                   : No
Audio
ID                                       : 2
Format                                   : DTS
Format/Info                              : Digital Theater Systems
Mode                                     : 16
Format settings, Endianness              : Big
Codec ID                                 : A_DTS
Duration                                 : 1h 24mn
Bit rate mode                            : Constant
Bit rate                                 : 1 509 Kbps
Channel(s)                               : 6 channels
Channel positions                        : Front: L C R, Side: L R, LFE
Sampling rate                            : 48.0 KHz
Bit depth                                : 24 bits
Compression mode                         : Lossy
Stream size                              : 915 MiB (9%)
Language                                 : English
Default                                  : Yes
Forced                                   : No
Text
ID                                       : 3
Format                                   : UTF-8
Codec ID                                 : S_TEXT/UTF8
Codec ID/Info                            : UTF-8 Plain Text
Language                                 : English
Default                                  : No
Forced                                   : No
Menu
00:00:00.000                             : en:00:00:00.000
00:05:23.531                             : en:00:05:23.531
00:10:09.817                             : en:00:10:09.817
00:14:38.919                             : en:00:14:38.919
00:18:18.764                             : en:00:18:18.764
00:25:00.081                             : en:00:25:00.081
00:27:51.711                             : en:00:27:51.711
00:31:30.555                             : en:00:31:30.555
00:34:48.377                             : en:00:34:48.377
00:38:31.309                             : en:00:38:31.309
00:43:16.760                             : en:00:43:16.760
00:49:48.360                             : en:00:49:48.360
00:52:43.034                             : en:00:52:43.034
00:54:42.946                             : en:00:54:42.946
00:59:57.427                             : en:00:59:57.427
01:04:59.478                             : en:01:04:59.478
01:08:56.382                             : en:01:08:56.382
01:11:20.901                             : en:01:11:20.901
01:16:26.957                             : en:01:16:26.957
01:17:38.153                             : en:01:17:38.153
精彩剧照

20190801120031.jpg 20190801120031.jpg 20190801120031.jpg 20190801120031.jpg 20190801120031.jpg 20190801120031.jpg                                                                                 

                                                                                                                                                  

hao8k提示您,点击下方下载按钮立刻开始下载
高卢勇士之美洲历险 Asterix.in.America.1994.1080p.BluRay.x264.DTS-FGT 10.27GB

Asterix.in.America.1994.1080p.BluRay.x264.DTS-FGT.torrent ( 51.77 KB )



遇到问题怎么办?
Hao8k小助手精心为您解答:

蓝光资源该怎么播放?Hao8k精选播放软件汇总
用什么下载Hao8k资源呢?精选下载软件合辑
去看看新手学院,Hao8k小助手带你玩转高清
回复

使用道具 举报

全部回复0 显示全部楼层

声明:您在社区发表的所有信息仅代表用户个人观点,与本网站立场无关,希望各位烧友理性发言,不发表违法国家法律禁止的话题。

您需要登录后才可以回帖 登录 | 立即注册

本版积分规则

开通会员 每日签到 返回顶部 返回列表