开启左侧

[喜剧片] 异教徒 The.Infidel.2010.1080p.BluRay.x264.DTS-FGT 6.54GB

Hao8k资源组 发表于 2019-12-26 13:58:08 | 显示全部楼层 |阅读模式

马上注册 Hao8k.cn ,获得更好的体验,让你轻松玩转Hao8k

您需要 登录 才可以下载或查看,没有帐号?立即注册

x
20190801120031.jpg
译  名 异教徒
片  名 The Infidel
年  代 2010
国  家 英国
类  别 喜剧
语  言 英语
上映日期 2010-04-09
IMDb评分  6.4/10 from 5,462 users
◎◎豆瓣评分 7.1/10 from 167 users
◎◎片  长 105 分钟
导  演 Josh Appignanesi
主  演
Matt Lucas
Archie Panjabi
Richard Schiff
Omid Djalili
Art Malik
Amit Shah
Miranda Hart

简  介
  马哈茂德.纳西尔是一个热爱妻子的丈夫,是一个对孩子有几分溺爱的父亲。当然,他还是一个不再遵守穆斯林的清规戒律的吊儿郎当的穆斯林。最近几天,他的儿子拉希德比较纠结,因为已经到了结婚的年龄,但是他的未婚妻的父亲却是一个极其刻板和保守的穆斯林牧师。要想成婚,必须先把这个牧师给忽悠舒服了。
  为了让牧师岳父开心,纳西尔一家必须假装自己是一户虔诚而且诚恳的穆斯林家庭。不过这个时候,问题出现了——马哈茂德纳西尔突然发现自己并不是什么劳什子的穆斯林、也不是什么中东血统的人,他是个被抱养来的犹太人,他的真名叫做索利史姆席勒维茨。为了化解自己对自我身份的认同危机、为了找回失去的宗教和信仰,史姆席勒维茨值得求助于成天喝的醉醺醺的犹太司机,这个司机答应交给他犹太人的生活习惯和宗教习惯——他们的第一课是学习犹太舞蹈……
Video
ID                                       : 1
Format                                   : AVC
Format/Info                              : Advanced Video Codec
Format profile                           : High@L4.1
Format settings, CABAC                   : Yes
Format settings, ReFrames                : 4 frames
Codec ID                                 : V_MPEG4/ISO/AVC
Duration                                 : 1h 45mn
Bit rate                                 : 7 405 Kbps
Width                                    : 1 920 pixels
Height                                   : 1 080 pixels
Display aspect ratio                     : 16:9
Frame rate mode                          : Constant
Frame rate                               : 24.000 fps
Color space                              : YUV
Chroma subsampling                       : 4:2:0
Bit depth                                : 8 bits
Scan type                                : Progressive
Bits/(Pixel*Frame)                       : 0.149
Stream size                              : 5.30 GiB (81%)
Writing library                          : x264 core 119 r2106 07efeb4
Encoding settings                        : cabac=1 / ref=4 / deblock=1:0:0 / analyse=0x3:0x113 / me=umh / subme=7 / psy=1 / psy_rd=1.00:0.00 / mixed_ref=1 / me_range=16 / chroma_me=1 / trellis=1 / 8x8dct=1 / cqm=0 / deadzone=21,11 / fast_pskip=0 / chroma_qp_offset=-2 / threads=12 / sliced_threads=0 / nr=0 / decimate=1 / interlaced=0 / bluray_compat=0 / constrained_intra=0 / bframes=3 / b_pyramid=2 / b_adapt=1 / b_bias=0 / direct=1 / weightb=1 / open_gop=0 / weightp=2 / keyint=250 / keyint_min=24 / scenecut=40 / intra_refresh=0 / rc_lookahead=40 / rc=2pass / mbtree=1 / bitrate=7405 / ratetol=1.0 / qcomp=0.60 / qpmin=0 / qpmax=69 / qpstep=4 / cplxblur=20.0 / qblur=0.5 / ip_ratio=1.40 / aq=1:1.00
Language                                 : English
Default                                  : Yes
Forced                                   : No
Audio
ID                                       : 2
Format                                   : DTS
Format/Info                              : Digital Theater Systems
Mode                                     : 16
Format settings, Endianness              : Big
Codec ID                                 : A_DTS
Duration                                 : 1h 45mn
Bit rate mode                            : Constant
Bit rate                                 : 1 509 Kbps
Channel(s)                               : 6 channels
Channel positions                        : Front: L C R, Side: L R, LFE
Sampling rate                            : 48.0 KHz
Bit depth                                : 24 bits
Compression mode                         : Lossy
Stream size                              : 1.11 GiB (17%)
Language                                 : English
Default                                  : Yes
Forced                                   : No
精彩剧照

20190801120031.jpg 20190801120031.jpg 20190801120031.jpg 20190801120031.jpg 20190801120031.jpg 20190801120031.jpg                                                                                 

                                                                                                                                                  

hao8k提示您,点击下方下载按钮立刻开始下载
异教徒 The.Infidel.2010.1080p.BluRay.x264.DTS-FGT 6.54GB

The.Infidel.2010.1080p.BluRay.x264.DTS-FGT.torrent ( 65.99 KB )



遇到问题怎么办?
Hao8k小助手精心为您解答:

蓝光资源该怎么播放?Hao8k精选播放软件汇总
用什么下载Hao8k资源呢?精选下载软件合辑
去看看新手学院,Hao8k小助手带你玩转高清
回复

使用道具 举报

全部回复0 显示全部楼层

声明:您在社区发表的所有信息仅代表用户个人观点,与本网站立场无关,希望各位烧友理性发言,不发表违法国家法律禁止的话题。

您需要登录后才可以回帖 登录 | 立即注册

本版积分规则

开通会员 每日签到 返回顶部 返回列表