开启左侧

[动作片] 杀人锦标赛 The.Tournament.2009.1080p.BluRay.x264-THUGLiNE 6.56GB

Hao8k资源组 发表于 2019-12-26 13:11:54 | 显示全部楼层 |阅读模式

马上注册 Hao8k.cn ,获得更好的体验,让你轻松玩转Hao8k

您需要 登录 才可以下载或查看,没有帐号?立即注册

x
20190801120031.jpg
译  名 杀人锦标赛
片  名 The Tournament
年  代 2009
国  家 英国
类  别 动作/惊悚
语  言 英语
上映日期 2009
IMDb评分  6.1/10 from 29,710 users
◎◎豆瓣评分 6.1/10 from 7,833 users
◎◎片  长 92分钟
导  演 Scott Mann
主  演
罗伯特·卡莱尔 Robert Carlyle
文·瑞姆斯 Ving Rhames
胡凯莉 Kelly Hu
伊恩·萨默海尔德 Ian Somerhalder
利亚姆·坎宁安 Liam Cunningham
Sebastien Foucan

简  介
  英国的德尔斯布勒,正悄悄展开一场游戏。这是属于富翁和杀戮者的残酷游戏,它每7年举行一次,幕后操纵者以一千万美元奖金为诱饵召集了世界上30位顶尖杀手,在24小时之内,他们将在这个小镇内捉对厮杀,只有最后的王者才能获得巨额报酬。与此同时,富豪们坐在大屏幕前观看现场直播,大赌输赢,场面极其疯狂。
  本次杀人锦标赛云集了赖莱珍(胡凯丽 Kelly Hu 饰)、安东?博加特、尤里?彼德洛夫(Scott Adkins 饰)、迈尔斯?史雷德(Ian Somerhalder 饰)等身怀绝技、手段凶狠的个中高手,更有怀着复仇目的参加比赛的上届冠军乔舒娅?哈洛(Ving Rhames 饰),这注定是一场血腥而丧失人性的杀戮战……
Video
ID                                       : 2
Format                                   : AVC
Format/Info                              : Advanced Video Codec
Format profile                           : High@L4.1
Format settings, CABAC                   : Yes
Format settings, ReFrames                : 4 frames
Codec ID                                 : V_MPEG4/ISO/AVC
Duration                                 : 1h 32mn
Bit rate                                 : 8 669 Kbps
Width                                    : 1 920 pixels
Height                                   : 1 080 pixels
Display aspect ratio                     : 16:9
Frame rate mode                          : Constant
Frame rate                               : 23.976 fps
Color space                              : YUV
Chroma subsampling                       : 4:2:0
Bit depth                                : 8 bits
Scan type                                : Progressive
Bits/(Pixel*Frame)                       : 0.174
Stream size                              : 5.46 GiB (83%)
Writing library                          : x264 core 79 r1347 5ddd61b
Encoding settings                        : cabac=1 / ref=4 / deblock=1:0:0 / analyse=0x3:0x133 / me=umh / subme=7 / psy=1 / psy_rd=1.0:0.0 / mixed_ref=1 / me_range=16 / chroma_me=1 / trellis=1 / 8x8dct=1 / cqm=0 / deadzone=21,11 / chroma_qp_offset=-2 / threads=12 / nr=0 / decimate=1 / mbaff=0 / constrained_intra=0 / bframes=3 / b_pyramid=0 / b_adapt=1 / b_bias=0 / direct=1 / wpredb=1 / wpredp=2 / keyint=250 / keyint_min=25 / scenecut=40 / rc_lookahead=40 / rc=2pass / mbtree=1 / bitrate=8669 / ratetol=1.0 / qcomp=0.60 / qpmin=10 / qpmax=51 / qpstep=4 / cplxblur=20.0 / qblur=0.5 / ip_ratio=1.40 / aq=1:1.00
Language                                 : English
Default                                  : No
Forced                                   : No
Audio
ID                                       : 1
Format                                   : DTS
Format/Info                              : Digital Theater Systems
Mode                                     : 16
Format settings, Endianness              : Big
Codec ID                                 : A_DTS
Duration                                 : 1h 32mn
Bit rate mode                            : Constant
Bit rate                                 : 1 509 Kbps
Channel(s)                               : 6 channels
Channel positions                        : Front: L C R, Side: L R, LFE
Sampling rate                            : 48.0 KHz
Bit depth                                : 16 bits
Compression mode                         : Lossy
Stream size                              : 996 MiB (15%)
Language                                 : English
Default                                  : Yes
Forced                                   : No
精彩剧照

20190801120031.jpg 20190801120031.jpg 20190801120031.jpg 20190801120031.jpg 20190801120031.jpg 20190801120031.jpg                                                                                 

                                                                                                                                                  

hao8k提示您,点击下方下载按钮立刻开始下载
杀人锦标赛 The.Tournament.2009.1080p.BluRay.x264-THUGLiNE 6.56GB

The.Tournament.2009.1080p.BluRay.x264-THUGLiNE.torrent ( 66.11 KB )



遇到问题怎么办?
Hao8k小助手精心为您解答:

蓝光资源该怎么播放?Hao8k精选播放软件汇总
用什么下载Hao8k资源呢?精选下载软件合辑
去看看新手学院,Hao8k小助手带你玩转高清
回复

使用道具 举报

全部回复0 显示全部楼层

声明:您在社区发表的所有信息仅代表用户个人观点,与本网站立场无关,希望各位烧友理性发言,不发表违法国家法律禁止的话题。

您需要登录后才可以回帖 登录 | 立即注册

本版积分规则

开通会员 每日签到 返回顶部 返回列表