开启左侧

[动画片] 头脑特工队/玩转脑朋友 Inside.Out.2015.1080p.BluRay.x264.DTS-S4NS 7.51GB

Hao8k资源组 发表于 2019-12-26 11:47:31 | 显示全部楼层 |阅读模式

马上注册 Hao8k.cn ,获得更好的体验,让你轻松玩转Hao8k

您需要 登录 才可以下载或查看,没有帐号?立即注册

x
20190801120031.jpg
译  名 头脑特工队/玩转脑朋友(港)/脑筋急转弯(台)/头脑大作战/大脑环游记/脑中小小人/大脑内外/由内而外/头脑总动员
片  名 Inside Out
年  代 2015
国  家 美国
类  别 喜剧/动画/冒险/家庭
语  言 英语
上映日期 2015-10-06(中国大陆)/2015-06-19(美国)
IMDb评分  8.5/10 from 147,457 users
◎◎豆瓣评分 8.8/10 from 69,930 users
◎◎片  长 94分钟
导  演 彼特·道格特 Pete Docter / 罗纳尔多·德尔·卡门 Ronaldo Del Carmen
主  演
艾米·波勒 Amy Poehler
菲利丝·史密斯 Phyllis Smith
理查德·坎德 Richard Kind
比尔·哈德尔 Bill Hader
刘易斯·布莱克 Lewis Black
敏迪·卡灵 Mindy Kaling
凯特林·迪亚斯 Kaitlyn Dias
戴安·琳恩 Diane Lane
凯尔·麦克拉克伦 Kyle MacLachlan
波拉·庞德斯通 Paula Poundstone
鲍比·莫伊尼汉 Bobby Moynihan
保拉·佩尔 Paula Pell
大卫·戈尔兹 Dave Goelz
弗兰克·奥兹 Frank Oz
乔什·库雷 Josh Cooley
弗利 Flea
约翰·拉岑贝格 John Ratzenberger
卡洛斯·阿拉斯拉奇 Carlos Alazraqui
皮特·萨加尔 Peter Sagal
拉什达·琼斯 Rashida Jones
罗里·艾伦 Lori Alan
约翰·齐甘 John Cygan
雪莉·琳恩 Sherry Lynn
拉瑞恩·纽曼 Laraine Newman
帕丽斯·冯·戴克 Paris Van Dyke

简  介
  可爱的小女孩莱莉(凯特林·迪亚斯 Kaitlyn Dias 配音)出生在明尼苏达州一个平凡的家庭中,从小她在父母的呵护下长大,脑海中保存着无数美好甜蜜的回忆。当然这些记忆还与几个莱莉未曾谋面的伙伴息息相关,他们就是人类的五种主要情绪:乐乐(艾米·波勒 Amy Poehl er 配音)、忧忧(菲利丝·史密斯 Phyllis Smith 配音)、怕怕(比尔·哈德尔 Bill Hader 配音)、厌厌(敏迪·卡灵 Mindy Kaling 配音)和怒怒(刘易斯·布莱克 Lewis Black 配音)。乐乐作为团队的领导,她协同其他伙伴致力于为小主人营造更多美好的珍贵回忆。某天,莱莉随同父母搬到了旧金山,肮脏逼仄的公寓、陌生的校园环境、逐渐失落的友情都让莱莉无所适从,她的负面情绪逐渐累积,内心美好的世界渐次崩塌。
  为了保护这一切,乐乐只有行动起来……
◎获奖情况
  第17届美国青少年选择奖 (2015)
  Choice Movie: Hissy Fit(提名) 刘易斯·布莱克
  最佳暑期电影(提名)
  最佳暑期电影女演员(提名) 艾米·波勒
Video
ID : 1
Format : AVC
Format/Info : Advanced Video Codec
Format profile : High@L4.1
Format settings, CABAC : Yes
Format settings, ReFrames : 2 frames
Codec ID : V_MPEG4/ISO/AVC
Duration : 1h 34mn
Bit rate : 9 623 Kbps
Width : 1 920 pixels
Height : 1 080 pixels
Display aspect ratio : 16:9
Frame rate mode : Constant
Frame rate : 23.976 fps
Color space : YUV
Chroma subsampling : 4:2:0
Bit depth : 8 bits
Scan type : Progressive
Bits/(Pixel*Frame) : 0.194
Stream size : 6.36 GiB (85%)
Title : DDLValley.COOL_Inside.Out.2015.1080p.BluRay.x264.DTS-S4NS
Language : English
Default : Yes
Forced : No
Audio
ID : 2
Format : DTS
Format/Info : Digital Theater Systems
Mode : 16
Format settings, Endianness : Big
Codec ID : A_DTS
Duration : 1h 34mn
Bit rate mode : Constant
Bit rate : 1 509 Kbps
Channel(s) : 6 channels
Channel positions : Front: L C R, Side: L R, LFE
Sampling rate : 48.0 KHz
Bit depth : 24 bits
Compression mode : Lossy
Stream size : 1 021 MiB (13%)
Title : DDLValley.COOL_Inside.Out.2015.1080p.BluRay.x264.DTS-S4NS
Language : English
Default : No
Forced : No
精彩剧照

20190801120031.jpg                                                                                 

                                                                                                                                                  

hao8k提示您,点击下方下载按钮立刻开始下载
头脑特工队/玩转脑朋友 Inside.Out.2015.1080p.BluRay.x264.DTS-S4NS 7.51GB

Inside.Out.2015.1080p.BluRay.x264.DTS-S4NS.torrent ( 38.34 KB )



遇到问题怎么办?
Hao8k小助手精心为您解答:

蓝光资源该怎么播放?Hao8k精选播放软件汇总
用什么下载Hao8k资源呢?精选下载软件合辑
去看看新手学院,Hao8k小助手带你玩转高清
回复

使用道具 举报

全部回复0 显示全部楼层

声明:您在社区发表的所有信息仅代表用户个人观点,与本网站立场无关,希望各位烧友理性发言,不发表违法国家法律禁止的话题。

您需要登录后才可以回帖 登录 | 立即注册

本版积分规则

开通会员 每日签到 返回顶部 返回列表