请选择 进入手机版 | 继续访问电脑版

QQ登录

只需一步,快速开始

切换到宽版
微信扫一扫 分享朋友圈

已有 33 人浏览分享

开启左侧

伊甸湖/猎人游戏 Eden.Lake.2008.1080p.BluRay.x264.DTS-FGT 9.42GB

[复制链接]
33 2

马上注册 Hao8k.cn ,获得更好的体验,让你轻松玩转Hao8k

您需要 登录 才可以下载或查看,没有帐号?立即注册

x
20190801120031.jpg
译  名 伊甸湖/猎人游戏
片  名 Eden Lake
年  代 2008
国  家 英国
类  别 剧情/犯罪/惊悚
语  言 英语
上映日期 2008-09-12(英国)
IMDb评分  6.9/10 from 50,674 users
◎ ◎豆瓣评分 7.5/10 from 38,976 users
◎ ◎片  长 91分钟
导  演 詹姆斯·瓦特金斯 James Watkins
主  演
凯利·蕾莉 Kelly Reilly
迈克尔·法斯宾德 Michael Fassbender
Tara Ellis
杰克·奥康奈尔 Jack O Connell
Finn Atkins
Jumayn Hunter
托马斯·图尔格斯 Thomas Turgoose
詹姆斯·伯罗斯 James Burrows

简  介
  热恋中的珍妮(Kelly Reilly 饰)与史帝夫(Michael Fassbender 饰)来到美丽的湖边,计划度过一个浪漫而温馨的周末。但是他们的周末被一群胡作非为、大声喧哗的少年给搅乱。一番口角冲突过后,夫妇俩的食物以及车钥匙不翼而飞。他们只得徒步前往镇上求助,却不知道,这恰恰是恶梦的开始……
  本片荣获2009年《帝国》杂志奖最佳恐怖片奖、2009年葡萄牙奇幻国际电影节最佳导演奖、2009年伦敦影评电影金像奖英国年度青年演员奖(Thomas Turgoose)、2008年Sitges – Catalonian国际电影节评审团特别奖最佳影片。
Video
ID                                       : 1
Format                                   : AVC
Format/Info                              : Advanced Video Codec
Format profile                           : [email protected]
Format settings, CABAC                   : Yes
Format settings, ReFrames                : 5 frames
Codec ID                                 : V_MPEG4/ISO/AVC
Duration                                 : 1h 30mn
Bit rate                                 : 13.0 Mbps
Width                                    : 1 920 pixels
Height                                   : 816 pixels
Display aspect ratio                     : 2.35:1
Frame rate mode                          : Constant
Frame rate                               : 24.000 fps
Color space                              : YUV
Chroma subsampling                       : 4:2:0
Bit depth                                : 8 bits
Scan type                                : Progressive
Bits/(Pixel*Frame)                       : 0.346
Stream size                              : 8.27 GiB (88%)
Writing library                          : x264 core 128 r2216kMod 198a7ea
Encoding settings                        : cabac=1 / ref=5 / deblock=1:-3:-3 / analyse=0x3:0x133 / me=umh / subme=11 / psy=1 / fade_compensate=0.00 / psy_rd=1.10:0.00 / mixed_ref=1 / me_range=48 / chroma_me=1 / trellis=2 / 8x8dct=1 / cqm=0 / deadzone=21,11 / fast_pskip=0 / chroma_qp_offset=-2 / threads=6 / lookahead_threads=1 / sliced_threads=0 / nr=0 / decimate=1 / interlaced=0 / bluray_compat=0 / constrained_intra=0 / bframes=8 / b_pyramid=2 / b_adapt=2 / b_bias=0 / direct=3 / weightb=1 / open_gop=0 / weightp=2 / keyint=240 / keyint_min=24 / scenecut=40 / intra_refresh=0 / rc_lookahead=60 / rc=crf / mbtree=0 / crf=18.0000 / qcomp=0.75 / qpmin=0 / qpmax=69 / qpstep=4 / vbv_maxrate=50000 / vbv_bufsize=62500 / crf_max=0.0 / nal_hrd=none / ip_ratio=1.40 / pb_ratio=1.20 / aq=1:0.60
Language                                 : English
Default                                  : Yes
Forced                                   : No
Color range                              : Limited
Matrix coefficients                      : BT.709
Audio
ID                                       : 2
Format                                   : DTS
Format/Info                              : Digital Theater Systems
Mode                                     : 16
Format settings, Endianness              : Big
Codec ID                                 : A_DTS
Duration                                 : 1h 30mn
Bit rate mode                            : Constant
Bit rate                                 : 1 509 Kbps
Channel(s)                               : 6 channels
Channel positions                        : Front: L C R, Side: L R, LFE
Sampling rate                            : 48.0 KHz
Bit depth                                : 24 bits
Compression mode                         : Lossy
Stream size                              : 982 MiB (10%)
Language                                 : English
Default                                  : Yes
Forced                                   : No
Text #1
ID                                       : 3
Format                                   : UTF-8
Codec ID                                 : S_TEXT/UTF8
Codec ID/Info                            : UTF-8 Plain Text
Language                                 : English
Default                                  : No
Forced                                   : No
Text #2
ID                                       : 4
Format                                   : UTF-8
Codec ID                                 : S_TEXT/UTF8
Codec ID/Info                            : UTF-8 Plain Text
Title                                    : SDH
Language                                 : English
Default                                  : No
Forced                                   : No
Menu
00:00:00.000                             : en:Chapter 1
00:06:49.000                             : en:Chapter 2
00:20:38.416                             : en:Chapter 3
00:26:03.416                             : en:Chapter 4
00:36:19.000                             : en:Chapter 5
00:47:31.083                             : en:Chapter 6
00:56:03.541                             : en:Chapter 7
01:02:51.000                             : en:Chapter 8
01:06:56.458                             : en:Chapter 9
01:12:45.000                             : en:Chapter 10
01:20:52.207                             : en:Chapter 11
01:26:29.416                             : en:Chapter 12
精彩剧照

20190801120031.jpg 20190801120031.jpg 20190801120031.jpg 20190801120031.jpg 20190801120031.jpg 20190801120031.jpg                                                                                 

hao8k提示您,点击下方下载按钮立刻开始下载
伊甸湖/猎人游戏 Eden.Lake.2008.1080p.BluRay.x264.DTS-FGT 9.42GB
Eden.Lake.2008.1080p.BluRay.x264.DTS-FGT.torrent
         (94.76 KB, 下载次数: 1)

举报 使用道具

回复

评论 2

恭恭敬敬 恭恭敬敬    发表于 2021-6-5 17:01:35 | 显示全部楼层
谢谢楼主分享。

举报 使用道具

回复
TLB TLB    发表于 2021-6-10 10:00:54 | 显示全部楼层
看电影啦谢谢楼主分享。

举报 使用道具

回复
您需要登录后才可以回帖 登录 | 立即注册

本版积分规则

0

关注

1

粉丝

55093

主题
今日推荐
1080P电影下载排行
最新1080P电影资源
今日推荐
  • 邮箱:lanniao@1080pro.net
  • 本站内容由用户自主分享和转载自互联网
  • 转载目的在于传递信息,如有侵权、违反
  • 国家法律政策行为,请及时联系我们
  • 我们会第一时间及时清除和处理!
  • 关注服务号

  • 下载烧友之家APP

QQ|小黑屋|hao8k.cn-蓝光电影网 ( 渝ICP备19014890号-2 )|网站地图

GMT+8, 2021-6-23 13:33 , Processed in 0.058166 second(s), 39 queries .

Powered by Discuz! X3.4

© 2001-2020 Comsenz Inc.